<?xml version="1.0" standalone="no"?>
<!DOCTYPE svg PUBLIC "-//W3C//DTD SVG 1.1//EN" "http://www.w3.org/Graphics/SVG/1.1/DTD/svg11.dtd">
<svg xmlns="http://www.w3.org/2000/svg">
<defs >
<font id="Overpass" horiz-adv-x="570" ><font-face
    font-family="Overpass SemiBold"
    units-per-em="1000"
    panose-1="0 0 7 0 0 0 0 0 0 0"
    ascent="982"
    descent="-284"
    alphabetic="0" />
<glyph unicode=" " glyph-name="space" horiz-adv-x="240" />
<glyph unicode="!" glyph-name="exclam" horiz-adv-x="276" d="M115 193L86 490V712H190V490L161 193H115ZM138 -12Q106 -12 85 9T63 61T84 113T138 135Q169 135 191 113T214 61T192 10T138 -12Z" />
<glyph unicode="&quot;" glyph-name="quotedbl" horiz-adv-x="420" d="M45 700H175L154 420H66L45 700ZM245 700H375L354 420H266L245 700Z" />
<glyph unicode="#" glyph-name="numbersign" horiz-adv-x="680" d="M127 0L156 189H42L55 275H169L194 440H80L93 526H207L234 700H323L296 526H435L462 700H551L524 526H638L625 440H511L486 275H600L587 189H473L444 0H355L384 189H245L216 0H127ZM258 275H397L422
440H283L258 275Z" />
<glyph unicode="$" glyph-name="dollar" horiz-adv-x="584" d="M239 -98V-7Q170 6 121 49T50 158L148 194Q169 145 208 117T298 88Q352 88 384 116T416 196Q416 223 405 243T369 280T325 305T267 328Q230 342 211 350T161 377T115 413T87 462T74 529Q74 596 118
645T239 708V789H343V707Q401 695 439 660T493 573L397 541Q384 573 354 592T280 612Q234 612 208 590T182 528Q182 501 203 480T245 450T314 422Q346 410 363 403T410 381T455 351T490 313T516 262T524 197Q524 112 474 59T343 -8V-98H239Z" />
<glyph unicode="%" glyph-name="percent" horiz-adv-x="851" d="M209 356Q126 356 86 409T45 534Q45 603 85 657T209 712T332 659T373 534Q373 491 359 453T306 386T209 356ZM234 -12H139L617 712H712L234 -12ZM170 436T209 436T268 464T289 534Q289 578 269 605T209
632T150 605T129 534Q129 490 149 463ZM642 -12Q559 -12 519 41T478 166Q478 235 518 289T642 344T765 291T806 166Q806 123 792 85T739 18T642 -12ZM603 68T642 68T701 96T722 166Q722 210 702 237T642 264T583 237T562 166Q562 122 582 95Z" />
<glyph unicode="&amp;" glyph-name="ampersand" horiz-adv-x="701" d="M268 -12Q176 -12 118 42T60 185Q60 261 101 309T216 399Q177 447 161 480T144 554Q144 626 193 669T316 712Q388 712 436 667T485 552Q485 494 453 454T364 378L474 246Q493 297 493 339H594Q592
244 545 160L678 0H540L480 74Q391 -12 268 -12ZM313 620Q283 620 264 602T244 555Q244 539 255 518T274 486T306 448Q385 497 385 548Q385 581 365 600T313 620ZM282 86Q358 86 417 152L276 325Q226 294 199 264T172 190Q172 143 202 115T282 86Z" />
<glyph unicode="&apos;" glyph-name="quotesingle" horiz-adv-x="220" d="M45 700H175L154 420H66L45 700Z" />
<glyph unicode="(" glyph-name="parenleft" horiz-adv-x="345" d="M192 -130Q70 30 70 284Q70 424 108 534T203 712H305Q261 660 218 544T174 284Q174 208 187 136T222 12T260 -74T294 -130H192Z" />
<glyph unicode=")" glyph-name="parenright" horiz-adv-x="345" d="M51 -130Q68 -107 85 -74T123 11T157 136T171 284Q171 427 128 543T40 712H142Q199 644 237 534T275 284Q275 30 153 -130H51Z" />
<glyph unicode="*" glyph-name="asterisk" horiz-adv-x="530" d="M288 386L265 455L242 386L173 293L98 348L166 441L222 483H153L50 517L79 606L182 573L237 534L218 599V712H312V599L292 533L348 573L451 606L480 517L377 483H307L364 441L432 348L357 293L288 386Z" />
<glyph unicode="+" glyph-name="plus" horiz-adv-x="630" d="M367 293V108H263V293H80V393H263V578H367V393H550V293H367Z" />
<glyph unicode="," glyph-name="comma" horiz-adv-x="223" d="M41 -116Q59 -100 78 -71T102 -12Q75 -10 55 9T35 58Q35 91 57 112T109 134Q143 134 165 111T188 43Q188 -12 158 -62T80 -141L41 -116Z" />
<glyph unicode="-" glyph-name="hyphen" horiz-adv-x="395" d="M75 247V347H320V247H75Z" />
<glyph unicode="." glyph-name="period" horiz-adv-x="223" d="M111 -12Q79 -12 58 9T36 61T57 113T111 135Q142 135 164 113T187 61T165 10T111 -12Z" />
<glyph unicode="/" glyph-name="slash" horiz-adv-x="493" d="M-15 -130L378 712H483L90 -130H-15Z" />
<glyph unicode="0" glyph-name="zero" horiz-adv-x="648" d="M324 -12Q255 -12 204 19T126 105T87 219T74 350Q74 416 86 475T124 590T202 679T324 712Q393 712 444 681T522 595T561 481T574 350Q574 284 562 225T524 110T446 21T324 -12ZM324 88Q365 88 394 111T438
174T459 257T466 350Q466 403 460 446T438 529T393 590T324 612Q283 612 254 589T210 526T189 443T182 350Q182 297 188 254T210 171T255 110T324 88Z" />
<glyph unicode="1" glyph-name="one" horiz-adv-x="402" d="M149 0V543H34V620Q147 620 173 700H253V0H149Z" />
<glyph unicode="2" glyph-name="two" horiz-adv-x="614" d="M64 0Q64 241 316 371Q371 399 402 430T433 508Q433 552 399 582T311 612Q206 612 170 519L75 562Q101 630 164 671T312 712Q417 712 479 655T541 505Q541 448 516 405T456 337T360 279Q214 201 191
102H547V0H64Z" />
<glyph unicode="3" glyph-name="three" horiz-adv-x="603" d="M294 -12Q204 -12 141 31T48 149L145 188Q189 88 294 88Q354 88 392 116T431 202Q431 251 398 282T297 314H243V414H297Q346 414 375 440T405 509Q405 558 376 585T294 612Q210 612 170 533L73 570Q98
636 156 674T297 712Q391 712 452 656T513 519Q513 413 423 367Q539 321 539 206Q539 103 471 46T294 -12Z" />
<glyph unicode="4" glyph-name="four" horiz-adv-x="645" d="M391 0V159H14V226L372 700H495V255H586V159H495V0H391ZM391 255V574L152 255H391Z" />
<glyph unicode="5" glyph-name="five" horiz-adv-x="604" d="M273 -12Q132 -12 59 52L121 135Q143 121 158 113T205 96T273 88Q345 88 389 128T433 232Q433 294 398 327T304 360Q235 360 192 312L79 354L103 700H496V600H200L185 422Q237 460 319 460Q425 460
483 394T541 235Q541 124 466 56T273 -12Z" />
<glyph unicode="6" glyph-name="six" horiz-adv-x="598" d="M307 -12Q189 -12 127 63T64 259Q64 440 159 559T447 712V612Q353 597 284 542T188 390Q240 440 332 440Q428 440 488 377T549 213Q549 113 482 51T307 -12ZM247 88T307 88T404 121T441 213Q441 273
404 306T307 340T210 306T172 213Q172 155 209 122Z" />
<glyph unicode="7" glyph-name="seven" horiz-adv-x="535" d="M180 0Q181 173 230 312T381 598H24V700H496V587Q389 463 339 301T288 0H180Z" />
<glyph unicode="8" glyph-name="eight" horiz-adv-x="613" d="M414 -12T306 -12T131 49T64 205Q64 325 181 383Q94 432 94 529Q94 608 152 660T306 712T460 660T519 529Q519 433 431 383Q549 326 549 205Q549 110 482 49ZM306 432Q353 432 383 458T413 523Q413
563 384 587T306 612Q259 612 230 588T200 523Q200 485 230 459T306 432ZM247 88T306 88T403 121T441 208Q441 260 403 296T306 332T210 296T172 208Q172 155 209 122Z" />
<glyph unicode="9" glyph-name="nine" horiz-adv-x="598" d="M171 -12V94Q376 105 413 311Q395 290 359 275T274 260Q175 260 112 322T49 487Q49 587 116 649T292 712Q413 712 473 638T534 441Q534 238 443 118T171 -12ZM230 366T291 366T388 398T424 488Q424
541 387 573T292 606Q233 606 196 574T159 487Q159 430 194 398Z" />
<glyph unicode=":" glyph-name="colon" horiz-adv-x="223" d="M111 337Q79 337 58 358T36 410T57 462T111 484Q142 484 164 462T187 410T165 359T111 337ZM111 -12Q79 -12 58 9T36 61T57 113T111 135Q142 135 164 113T187 61T165 10T111 -12Z" />
<glyph unicode=";" glyph-name="semicolon" horiz-adv-x="223" d="M110 337Q78 337 57 358T35 410T56 462T110 484Q141 484 163 462T186 410T164 359T110 337ZM41 -116Q59 -100 78 -71T102 -12Q75 -10 55 9T35 58Q35 91 57 112T109 134Q143 134 165 111T188 43Q188
-12 158 -62T80 -141L41 -116Z" />
<glyph unicode="&lt;" glyph-name="less" horiz-adv-x="630" d="M550 108L80 299V387L550 578V473L222 343L550 213V108Z" />
<glyph unicode="=" glyph-name="equal" horiz-adv-x="630" d="M80 390V490H550V390H80ZM80 196V296H550V196H80Z" />
<glyph unicode="&gt;" glyph-name="greater" horiz-adv-x="630" d="M550 299L80 108V213L408 343L80 473V578L550 387V299Z" />
<glyph unicode="?" glyph-name="question" horiz-adv-x="501" d="M189 190V210Q189 263 207 302T250 364T301 407T344 453T362 514Q362 559 333 586T252 614Q191 614 158 579T124 478H20Q20 586 84 649T252 712Q353 712 409 657T466 514Q466 469 448 434T405 377T355
333T311 280T293 209V190H189ZM240 -12Q208 -12 187 9T165 61T186 113T240 135Q271 135 293 113T316 61T294 10T240 -12Z" />
<glyph unicode="@" glyph-name="at" horiz-adv-x="819" d="M416 -12Q258 -12 159 80T60 337Q60 500 166 606T426 712Q575 712 667 625T759 411Q759 305 703 234T570 162Q543 162 522 178T497 221Q457 158 380 158Q316 158 276 205T236 329Q236 408 287 472T417
536Q486 536 516 478L524 523H613L581 354Q567 279 567 262Q567 237 584 237Q618 237 646 289T675 410Q675 505 609 567T430 630Q308 630 230 546T152 336Q152 210 223 140T420 70Q485 70 543 84L522 -5Q477 -12 416 -12ZM395 244Q438 244 465 282T493 367Q493
405 475 427T425 450Q382 450 354 414T326 328Q326 290 344 267T395 244Z" />
<glyph unicode="A" glyph-name="A" horiz-adv-x="696" d="M546 0L490 161H207L150 0H42L295 700H402L654 0H546ZM458 253L373 491Q355 540 349 570Q340 534 325 491L239 253H458Z" />
<glyph unicode="B" glyph-name="B" horiz-adv-x="666" d="M90 700H355Q471 700 523 647T576 513Q576 468 552 430T480 368Q542 346 571 302T601 205Q601 167 589 133T550 68T478 19T370 0H90V700ZM338 411Q402 411 436 437T470 508Q470 604 358 604H194V411H338ZM378
96Q441 96 468 126T495 200Q495 315 348 315H194V96H378Z" />
<glyph unicode="C" glyph-name="C" horiz-adv-x="650" d="M356 -12Q293 -12 243 9T160 65T105 148T74 246T65 350Q65 414 81 475T129 590T220 678T356 712Q448 712 509 672T594 573L499 529Q472 572 440 592T356 612Q306 612 269 588T212 524T183 441T173 350Q173
246 220 167T356 88Q444 88 498 178L595 141Q529 -12 356 -12Z" />
<glyph unicode="D" glyph-name="D" horiz-adv-x="685" d="M90 700H286Q374 700 440 670T545 589T601 478T620 350Q620 285 603 227T548 116T443 32T282 0H90V700ZM299 98Q356 98 399 120T466 180T501 260T512 350Q512 455 461 528T310 602H194V98H299Z" />
<glyph unicode="E" glyph-name="E" horiz-adv-x="601" d="M90 0V700H524V602H194V410H407V312H194V98H546V0H90Z" />
<glyph unicode="F" glyph-name="F" horiz-adv-x="559" d="M90 0V700H524V602H194V410H407V312H194V0H90Z" />
<glyph unicode="G" glyph-name="G" horiz-adv-x="690" d="M370 -12Q292 -12 232 18T136 101T83 216T65 350Q65 416 84 479T139 595T235 680T370 712Q462 712 516 677T609 579L515 525Q456 610 370 610Q326 610 292 594T235 552T199 492T179 422T173 350Q173 240
222 165T370 90Q435 90 476 132T518 238V252H392V350H625V259Q625 131 554 60T370 -12Z" />
<glyph unicode="H" glyph-name="H" horiz-adv-x="707" d="M513 0V312H194V0H90V700H194V410H513V700H617V0H513Z" />
<glyph unicode="I" glyph-name="I" horiz-adv-x="294" d="M95 0V700H199V0H95Z" />
<glyph unicode="J" glyph-name="J" horiz-adv-x="565" d="M247 -12Q171 -12 113 22T25 120L115 164Q152 88 247 88Q305 88 340 122T376 249V700H480V235Q480 165 459 115T403 38T329 0T247 -12Z" />
<glyph unicode="K" glyph-name="K" horiz-adv-x="677" d="M515 0L318 366L194 216V0H90V700H194V361L464 700H584L388 454L637 0H515Z" />
<glyph unicode="L" glyph-name="L" horiz-adv-x="561" d="M90 0V700H194V100H536V0H90Z" />
<glyph unicode="M" glyph-name="M" horiz-adv-x="804" d="M714 0H610V383Q610 459 615 496Q592 428 572 380L403 -12L233 383Q206 444 189 496Q194 459 194 383V0H90V700H195L383 263Q393 239 402 208Q409 230 422 263L609 700H714V0Z" />
<glyph unicode="N" glyph-name="N" horiz-adv-x="710" d="M620 0H522L219 475Q205 497 191 527Q194 479 194 475V0H90V700H195L490 233Q501 215 519 179Q516 209 516 232V700H620V0Z" />
<glyph unicode="O" glyph-name="O" horiz-adv-x="740" d="M435 -12T370 -12T252 9T165 65T108 148T75 246T65 350T75 454T108 552T165 635T252 691T370 712T488 691T575 635T632 552T665 454T675 350T665 246T632 148T575 65T488 9ZM318 88T370 88T462 112T524
177T556 260T567 350Q567 398 557 442T524 526T462 588T370 612T278 588T216 523T184 440T173 350Q173 302 183 258T216 174T278 112Z" />
<glyph unicode="P" glyph-name="P" horiz-adv-x="632" d="M90 0V700H371Q490 700 546 638T602 486Q602 402 544 337T371 272H194V0H90ZM377 372Q437 372 465 405T494 486Q494 531 467 565T377 600H194V372H377Z" />
<glyph unicode="Q" glyph-name="Q" horiz-adv-x="740" d="M370 -12Q305 -12 252 9T165 65T108 148T75 246T65 350T75 454T108 552T165 635T252 691T370 712T488 691T575 635T632 552T665 454T675 350Q675 263 649 186T566 57L613 -13L533 -67L483 7Q431 -12 370
-12ZM370 88Q401 88 423 95L370 175L452 229L504 150Q567 224 567 350Q567 398 557 442T524 526T462 588T370 612T278 588T216 523T184 440T173 350Q173 302 183 258T216 174T278 112T370 88Z" />
<glyph unicode="R" glyph-name="R" horiz-adv-x="676" d="M90 0V700H385Q504 700 557 641T611 493Q611 426 573 371T459 295L603 0H484L346 286H194V0H90ZM194 386H387Q447 386 475 416T503 493Q503 537 477 568T387 600H194V386Z" />
<glyph unicode="S" glyph-name="S" horiz-adv-x="604" d="M305 -12Q212 -12 144 33T50 158L148 194Q170 145 212 117T309 88Q367 88 401 116T436 196Q436 218 427 236T405 267T368 291T327 310T278 328Q238 342 218 350T166 376T117 413T87 462T74 529Q74 606
134 659T297 712Q383 712 438 674T513 573L417 541Q403 573 371 592T289 612Q239 612 211 590T182 528Q182 501 204 480T250 449T323 422Q353 411 367 406T410 387T453 364T488 335T518 299T536 254T544 197Q544 99 477 44T305 -12Z" />
<glyph unicode="T" glyph-name="T" horiz-adv-x="590" d="M347 600V0H243V600H45V700H545V600H347Z" />
<glyph unicode="U" glyph-name="U" horiz-adv-x="697" d="M348 -12Q229 -12 157 53T85 265V700H189V265Q189 167 231 128T348 88T465 127T508 265V700H612V265Q612 119 541 54T348 -12Z" />
<glyph unicode="V" glyph-name="V" horiz-adv-x="663" d="M280 0L40 700H152L311 212Q326 166 333 132Q340 166 355 212L512 700H623L384 0H280Z" />
<glyph unicode="W" glyph-name="W" horiz-adv-x="852" d="M195 0L45 700H152L239 269Q252 202 254 188Q255 201 272 269L382 700H469L582 270Q597 214 600 190Q603 216 614 270L702 700H807L656 0H562L441 454Q426 508 424 530Q422 508 407 454L289 0H195Z" />
<glyph unicode="X" glyph-name="X" horiz-adv-x="650" d="M480 0L325 261L170 0H50L265 362L65 700H185L325 463L465 700H585L385 362L600 0H480Z" />
<glyph unicode="Y" glyph-name="Y" horiz-adv-x="666" d="M281 0V274L35 700H154L333 380L512 700H631L385 275V0H281Z" />
<glyph unicode="Z" glyph-name="Z" horiz-adv-x="662" d="M55 0V84L459 600H78V700H597V616L192 100H597V0H55Z" />
<glyph unicode="[" glyph-name="bracketleft" horiz-adv-x="372" d="M100 -130V712H332V614H204V-32H332V-130H100Z" />
<glyph unicode="\" glyph-name="backslash" horiz-adv-x="493" d="M378 -130L-15 712H90L483 -130H378Z" />
<glyph unicode="]" glyph-name="bracketright" horiz-adv-x="372" d="M272 -130H40V-32H168V614H40V712H272V-130Z" />
<glyph unicode="^" glyph-name="asciicircum" horiz-adv-x="630" d="M453 350L315 580L177 350H70L271 712H359L560 350H453Z" />
<glyph unicode="_" glyph-name="underscore" horiz-adv-x="500" d="M-5 -177V-87H505V-177H-5Z" />
<glyph unicode="`" glyph-name="grave" horiz-adv-x="400" d="M220 576L42 732H184L326 576H220Z" />
<glyph unicode="a" glyph-name="a" horiz-adv-x="532" d="M367 0V44Q313 -12 227 -12Q146 -12 96 32T45 159Q45 242 102 285T241 328Q316 328 367 298V326Q367 383 341 407T258 431Q174 431 112 385L81 470Q158 523 272 523Q310 523 340 517T401 492T449 432T467
331V0H367ZM246 80Q318 80 367 135V213Q320 238 258 238Q208 238 177 219T145 159Q145 122 171 101T246 80Z" />
<glyph unicode="b" glyph-name="b" horiz-adv-x="562" d="M300 -12Q227 -12 179 41V0H75V674L179 722V472Q225 523 300 523Q395 523 453 452T512 256Q512 128 456 58T300 -12ZM287 86Q345 86 376 131T408 256Q408 338 377 381T287 425Q251 425 222 408T179 367V144Q215
86 287 86Z" />
<glyph unicode="c" glyph-name="c" horiz-adv-x="518" d="M273 -12Q170 -12 110 59T50 255T110 451T273 523Q422 523 466 391L367 357Q342 423 277 423Q219 423 188 379T156 255Q156 177 187 133T273 88Q347 88 369 163L468 132Q427 -12 273 -12Z" />
<glyph unicode="d" glyph-name="d" horiz-adv-x="562" d="M262 -12Q165 -12 108 59T50 256Q50 380 108 451T262 523Q337 523 383 475V674L487 722V0H383V36Q340 -12 262 -12ZM277 86Q347 86 383 144V369Q369 392 342 408T277 425Q218 425 186 381T154 256Q154
180 187 133T277 86Z" />
<glyph unicode="e" glyph-name="e" horiz-adv-x="547" d="M282 -12Q175 -12 113 59T50 256T113 452T282 523Q378 523 440 462T502 284Q502 241 498 217H154Q155 156 193 118T283 80Q349 80 389 132L457 62Q395 -12 282 -12ZM154 301H398Q397 367 363 399T282 431Q229
431 194 400T154 301Z" />
<glyph unicode="f" glyph-name="f" horiz-adv-x="335" d="M215 421V0H111V421H35V511H111V593Q111 658 144 685T228 712Q282 712 330 688V602Q287 620 257 620Q215 620 215 574V511H330V421H215Z" />
<glyph unicode="g" glyph-name="g" horiz-adv-x="562" d="M246 -200L194 -120Q300 -114 341 -85T383 -4V41Q340 -12 260 -12Q168 -12 109 57T50 256Q50 380 108 451T262 523Q337 523 383 475V511H487V33Q487 -85 428 -138T246 -200ZM279 86Q347 86 383 146V367Q367
393 339 409T279 425Q218 425 186 382T154 256Q154 178 187 132T279 86Z" />
<glyph unicode="h" glyph-name="h" horiz-adv-x="565" d="M75 0V674L179 722V462Q227 523 311 523Q495 523 495 305V0H391V305Q391 366 363 395T289 425Q179 425 179 307V0H75Z" />
<glyph unicode="i" glyph-name="i" horiz-adv-x="256" d="M154 591T128 591T84 609T65 654T83 698T128 717T172 699T191 654T173 610ZM76 0V511H180V0H76Z" />
<glyph unicode="j" glyph-name="j" horiz-adv-x="256" d="M154 591T128 591T84 609T65 654T83 698T128 717T172 699T191 654T173 610ZM-13 -214L-63 -137Q16 -120 46 -93T76 -11V511H180V24Q180 -88 132 -138Q79 -194 -13 -214Z" />
<glyph unicode="k" glyph-name="k" horiz-adv-x="550" d="M510 0H396L245 294L179 228V0H75V673L179 722V353L330 511H458L318 369L510 0Z" />
<glyph unicode="l" glyph-name="l" horiz-adv-x="264" d="M80 0V673L184 722V0H80Z" />
<glyph unicode="m" glyph-name="m" horiz-adv-x="849" d="M675 0V306Q675 425 581 425Q537 425 508 393T479 301V0H375V306Q375 425 281 425Q237 425 208 393T179 301V0H75V511H179V464Q220 523 308 523Q403 523 444 450Q491 523 595 523Q678 523 728 475T779 330V0H675Z" />
<glyph unicode="n" glyph-name="n" horiz-adv-x="565" d="M391 0V305Q391 366 363 395T289 425Q179 425 179 307V0H75V511H179V462Q227 523 311 523Q495 523 495 305V0H391Z" />
<glyph unicode="o" glyph-name="o" horiz-adv-x="567" d="M391 -12T283 -12T113 59T50 255T112 451T283 523T454 452T517 255T454 59ZM283 86Q343 86 378 131T413 255T378 379T283 425Q224 425 189 380T154 255Q154 177 189 132T283 86Z" />
<glyph unicode="p" glyph-name="p" horiz-adv-x="562" d="M302 -12Q224 -12 179 44V-153L75 -201V511H179V470Q227 523 302 523Q399 523 455 452T512 255Q512 131 455 60T302 -12ZM287 86Q346 86 377 129T408 255Q408 331 376 378T287 425Q215 425 179 367V145Q223
86 287 86Z" />
<glyph unicode="q" glyph-name="q" horiz-adv-x="562" d="M262 -12Q167 -12 109 59T50 255Q50 380 107 451T262 523Q335 523 383 470V511H487V-153L383 -200V44Q337 -12 262 -12ZM275 86Q340 86 383 145V367Q347 425 275 425Q218 425 186 378T154 255Q154 173
185 130T275 86Z" />
<glyph unicode="r" glyph-name="r" horiz-adv-x="397" d="M75 0V511H179V449Q213 523 293 523Q343 523 379 492L364 396Q327 421 283 421Q241 421 210 390T179 287V0H75Z" />
<glyph unicode="s" glyph-name="s" horiz-adv-x="475" d="M233 -12Q173 -12 120 10T40 71L114 134Q169 82 231 82Q321 82 321 137Q321 156 304 172T270 195T215 218Q131 246 92 284T52 382Q52 448 102 485T230 523Q345 523 409 446L334 386Q293 429 230 429Q197
429 178 417T158 382Q158 359 181 345T257 310Q344 281 384 242T425 137Q425 65 374 27T233 -12Z" />
<glyph unicode="t" glyph-name="t" horiz-adv-x="379" d="M223 -12Q109 -12 109 115V421H30V511H109V672L213 722V511H334V421H213V142Q213 84 263 84Q300 84 339 108L326 11Q280 -12 223 -12Z" />
<glyph unicode="u" glyph-name="u" horiz-adv-x="565" d="M386 0V49Q338 -12 254 -12Q70 -12 70 206V511H174V206Q174 145 202 116T276 86Q386 86 386 204V511H490V0H386Z" />
<glyph unicode="v" glyph-name="v" horiz-adv-x="521" d="M212 0L25 511H129L247 176Q258 143 261 131Q264 143 275 176L392 511H496L309 0H212Z" />
<glyph unicode="w" glyph-name="w" horiz-adv-x="726" d="M171 0L35 511H137L209 193Q216 163 219 141Q222 160 230 193L315 511H411L496 193Q504 160 507 141Q510 163 517 193L589 511H691L555 0H463L378 297Q366 338 362 361Q357 329 347 296L263 0H171Z" />
<glyph unicode="x" glyph-name="x" horiz-adv-x="530" d="M35 0L205 266L49 511H168L239 400Q258 368 265 354Q284 389 291 400L362 511H481L324 266L495 0H376L291 132Q284 143 265 178Q256 158 239 132L154 0H35Z" />
<glyph unicode="y" glyph-name="y" horiz-adv-x="538" d="M137 -194L216 9L25 511H128L254 177Q263 154 268 132Q273 154 282 177L409 511H513L243 -194H137Z" />
<glyph unicode="z" glyph-name="z" horiz-adv-x="511" d="M55 0V85L326 419H75V511H451V429L180 92H450V0H55Z" />
<glyph unicode="{" glyph-name="braceleft" horiz-adv-x="366" d="M326 -130Q228 -128 172 -69T115 103V162Q115 200 100 223T55 246H40V337H55Q84 337 99 360T115 421V479Q115 591 171 650T326 712V620Q219 615 219 497V432Q219 361 196 330T124 291Q173 283
196 252T219 150V85Q219 -33 326 -38V-130Z" />
<glyph unicode="|" glyph-name="bar" horiz-adv-x="274" d="M85 -378V1062H189V-378H85Z" />
<glyph unicode="}" glyph-name="braceright" horiz-adv-x="366" d="M40 -130V-38Q147 -33 147 85V150Q147 221 170 252T242 291Q193 299 170 330T147 432V497Q147 615 40 620V712Q138 710 194 651T251 479V421Q251 383 266 360T311 337H326V246H311Q282 246 267
223T251 162V103Q251 -9 195 -68T40 -130Z" />
<glyph unicode="~" glyph-name="asciitilde" horiz-adv-x="630" d="M416 264Q370 264 306 293T215 322T173 306T155 264H80Q80 332 113 377T214 422Q260 422 324 393T415 364T457 380T475 422H550Q550 354 517 309T416 264Z" />
<glyph unicode="&#xa0;" glyph-name="uni00A0" horiz-adv-x="240" />
<glyph unicode="&#xa1;" glyph-name="exclamdown" horiz-adv-x="276" d="M138 376Q106 376 85 397T63 449T84 501T138 523Q169 523 191 501T214 449T192 398T138 376ZM190 -200H86V21L115 318H161L190 21V-200Z" />
<glyph unicode="&#xa2;" glyph-name="cent" horiz-adv-x="518" d="M212 -12V90Q135 110 93 177T50 350T93 522T212 610V712H312V615Q429 598 466 486L367 452Q342 518 277 518Q219 518 188 474T156 350Q156 272 187 228T273 183Q347 183 369 258L468 227Q432 103
312 86V-12H212Z" />
<glyph unicode="&#xa3;" glyph-name="sterling" horiz-adv-x="589" d="M80 0V104Q153 139 164 258Q165 267 165 283H75V375H141Q105 449 105 511Q105 594 165 653T337 712Q454 712 550 642L509 543Q485 564 470 575T417 599T337 612Q275 612 244 583T213 511Q213
489 219 468T238 419T257 375H424V283H273Q273 266 272 258Q264 167 199 100H559V0H80Z" />
<glyph unicode="&#xa4;" glyph-name="currency" horiz-adv-x="630" d="M315 86Q236 86 181 122L114 54L36 132L107 203Q77 257 77 333Q77 407 108 464L36 536L111 611L179 543Q238 581 315 581T449 544L516 611L594 533L524 463Q554 405 554 333Q554 256 522 200L594
129L519 54L450 123Q393 86 315 86ZM256 186T315 186T411 227T448 333T411 439T315 481T220 439T183 333T219 228Z" />
<glyph unicode="&#xa5;" glyph-name="yen" horiz-adv-x="573" d="M343 329H481V239H338V173H481V83H338V0H234V83H87V173H234V239H87V329H228L15 700H133L286 425L439 700H558L343 329Z" />
<glyph unicode="&#xa6;" glyph-name="brokenbar" horiz-adv-x="274" d="M85 366V825H189V366H85ZM85 -225V234H189V-225H85Z" />
<glyph unicode="&#xa7;" glyph-name="section" horiz-adv-x="523" d="M265 -120Q195 -120 139 -95T50 -27L126 38Q184 -20 264 -20Q365 -20 365 48Q365 59 361 69T347 88T327 104T300 120T272 133T239 147T206 161Q171 176 152 186T109 214T73 258T62 316Q62 390
129 424Q62 469 62 553Q62 627 117 669T258 712Q384 712 453 628L374 565Q329 612 258 612Q217 612 194 597T170 553Q170 537 180 524T215 498T257 477T313 455Q344 443 361 435T403 412T441 381T463 341T473 286Q473 212 415 178Q473 130 473 51Q473 -30 418 -75T265
-120ZM330 226Q365 240 365 278Q365 295 355 309T321 335T280 355T226 375Q170 365 170 323Q170 316 172 309T180 296T192 285T208 275T227 265T250 256T274 247T302 237T330 226Z" />
<glyph unicode="&#xa8;" glyph-name="dieresis" horiz-adv-x="400" d="M136 591T110 591T66 609T47 654T65 698T110 717T154 699T173 654T155 610ZM316 591T290 591T246 609T227 654T245 698T290 717T334 699T353 654T335 610Z" />
<glyph unicode="&#xa9;" glyph-name="copyright" horiz-adv-x="844" d="M576 -12T422 -12T164 92T60 350T164 608T422 712T680 608T784 350T680 92ZM299 60T422 60T626 143T707 350T626 557T422 640T218 557T137 350T218 143ZM426 132Q379 132 344 151T289 202T260
272T250 350Q250 435 293 501T426 568Q482 568 520 542T573 478L507 447Q490 473 472 484T426 496Q375 496 351 452T327 350T352 248T426 204Q472 204 507 256L574 232Q532 132 426 132Z" />
<glyph unicode="&#xaa;" glyph-name="ordfeminine" horiz-adv-x="437" d="M294 283V313Q250 273 184 273T77 309T35 414T83 518T196 554Q250 554 294 533V550Q294 595 274 614T210 633Q144 633 92 594L66 668Q128 712 221 712Q253 712 277 707T328 686T368 638T382
554V283H294ZM200 352Q253 352 294 391V457Q254 476 210 476Q174 476 150 461T125 414Q125 385 145 369T200 352Z" />
<glyph unicode="&#xab;" glyph-name="guillemotleft" horiz-adv-x="524" d="M182 0L30 256L182 511H295L143 256L295 0H182ZM396 0L244 256L396 511H509L357 256L509 0H396Z" />
<glyph unicode="&#xac;" glyph-name="logicalnot" horiz-adv-x="630" d="M446 168V373H80V473H550V168H446Z" />
<glyph unicode="&#xad;" glyph-name="uni00AD" horiz-adv-x="395" d="M75 247V347H320V247H75Z" />
<glyph unicode="&#xae;" glyph-name="registered" horiz-adv-x="844" d="M576 -12T422 -12T164 92T60 350T164 608T422 712T680 608T784 350T680 92ZM299 60T422 60T626 143T707 350T626 557T422 640T218 557T137 350T218 143ZM279 139V561H445Q518 561 551 525T584
435Q584 395 562 362T496 315L592 139H504L419 308H353V139H279ZM353 379H445Q506 379 506 435Q506 490 445 490H353V379Z" />
<glyph unicode="&#xaf;" glyph-name="overscore" horiz-adv-x="400" d="M35 597V683H365V597H35Z" />
<glyph unicode="&#xb0;" glyph-name="degree" horiz-adv-x="400" d="M274 453T200 453T75 503T24 627Q24 701 75 750T200 800T324 751T375 627Q375 554 325 504ZM169 549T200 549T252 571T273 627Q273 661 253 682T200 704T147 683T126 627Q126 594 147 572Z" />
<glyph unicode="&#xb1;" glyph-name="plusminus" horiz-adv-x="630" d="M367 353V198H263V353H80V453H263V608H367V453H550V353H367ZM80 0V100H550V0H80Z" />
<glyph unicode="&#xb2;" glyph-name="uni00B2" horiz-adv-x="357" d="M25 444Q25 528 66 587T172 681Q193 692 203 698T222 718T232 746Q232 767 217 781T175 795Q118 795 105 730L24 749Q35 803 77 838T175 873Q241 873 280 837T319 744Q319 717 311 697T285
661T251 634T205 609Q147 579 122 522H318V444H25Z" />
<glyph unicode="&#xb3;" glyph-name="uni00B3" horiz-adv-x="347" d="M165 436Q108 436 69 468T12 559L94 581Q102 548 122 531T168 514Q194 514 211 528T228 568Q228 591 212 606T164 622H133V700H163Q188 700 200 713T213 747T201 781T165 795Q124 795 107 746L27
775Q46 820 82 846T167 873Q227 873 263 838T299 751Q299 696 250 664Q280 651 297 625T314 567Q314 507 273 472T165 436Z" />
<glyph unicode="&#xb4;" glyph-name="acute" horiz-adv-x="400" d="M75 576L217 732H359L181 576H75Z" />
<glyph unicode="&#xb5;" glyph-name="uni00B5" horiz-adv-x="565" d="M386 0V49Q338 -12 264 -12Q205 -12 174 29V-151L70 -200V511H174V206Q174 139 200 113T276 86Q386 86 386 204V511H490V0H386Z" />
<glyph unicode="&#xb6;" glyph-name="paragraph" horiz-adv-x="628" d="M254 -200V276Q137 276 79 340T20 488Q20 577 76 638T251 700H548V-72L444 -119V600H358V-153L254 -200Z" />
<glyph unicode="&#xb7;" glyph-name="middot" horiz-adv-x="223" d="M111 276Q79 276 58 297T36 349T57 401T111 423Q142 423 164 401T187 349T165 298T111 276Z" />
<glyph unicode="&#xb8;" glyph-name="cedilla" horiz-adv-x="400" d="M195 -239Q130 -239 95 -201L146 -164Q158 -179 185 -179Q207 -179 221 -167T235 -135Q235 -116 220 -104T181 -92Q157 -92 141 -102L121 -77L191 10H248L211 -50Q266 -50 293 -74T321 -136Q321
-182 287 -210T195 -239Z" />
<glyph unicode="&#xb9;" glyph-name="uni00B9" horiz-adv-x="200" d="M65 444V778H10V839Q64 839 81 866H147V444H65Z" />
<glyph unicode="&#xba;" glyph-name="ordmasculine" horiz-adv-x="464" d="M231 273Q143 273 92 331T40 492T91 653T231 712T371 654T424 492T372 331T231 273ZM231 358Q280 358 306 393T333 492Q333 556 307 591T231 627Q184 627 157 592T130 492Q130 429 157
394T231 358Z" />
<glyph unicode="&#xbb;" glyph-name="guillemotright" horiz-adv-x="524" d="M15 0L167 256L15 511H128L280 256L128 0H15ZM229 0L381 256L229 511H342L494 256L342 0H229Z" />
<glyph unicode="&#xbc;" glyph-name="onequarter" horiz-adv-x="686" d="M10 -12L488 712H583L105 -12H10ZM70 283V617H15V678Q69 678 86 705H152V283H70ZM529 0V86H317V139L532 423H609V163H663V86H609V0H529ZM529 163V305L420 163H529Z" />
<glyph unicode="&#xbd;" glyph-name="onehalf" horiz-adv-x="730" d="M10 -12L488 712H583L105 -12H10ZM70 283V617H15V678Q69 678 86 705H152V283H70ZM398 0Q398 84 439 143T545 237Q566 248 576 254T595 274T605 302Q605 323 590 337T548 351Q491 351 478 286L397
305Q408 359 450 394T548 429Q614 429 653 393T692 300Q692 273 684 253T658 217T624 190T578 165Q520 135 495 78H691V0H398Z" />
<glyph unicode="&#xbe;" glyph-name="threequarters" horiz-adv-x="806" d="M165 275Q108 275 69 307T12 398L94 420Q102 387 122 370T168 353Q194 353 211 367T228 407Q228 430 212 445T164 461H133V539H163Q188 539 200 552T213 586T201 620T165 634Q124 634
107 585L27 614Q46 659 82 685T167 712Q227 712 263 677T299 590Q299 535 250 503Q280 490 297 464T314 406Q314 346 273 311T165 275ZM130 -12L608 712H703L225 -12H130ZM649 0V86H437V139L652 423H729V163H783V86H729V0H649ZM649 163V305L540 163H649Z" />
<glyph unicode="&#xbf;" glyph-name="questiondown" horiz-adv-x="501" d="M261 376Q229 376 208 397T186 449T207 501T261 523Q292 523 314 501T337 449T315 398T261 376ZM249 -200Q148 -200 92 -145T35 -2Q35 43 53 78T96 135T146 179T190 232T208 303V322H312V302Q312
249 294 210T251 148T201 105T157 59T139 -2Q139 -47 168 -74T249 -102Q310 -102 343 -67T377 34H481Q481 -74 417 -137T249 -200Z" />
<glyph unicode="&#xc0;" glyph-name="Agrave" horiz-adv-x="696" d="M368 765L190 921H332L474 765H368ZM546 0L490 161H207L150 0H42L295 700H402L654 0H546ZM458 253L373 491Q355 540 349 570Q340 534 325 491L239 253H458Z" />
<glyph unicode="&#xc1;" glyph-name="Aacute" horiz-adv-x="696" d="M223 765L365 921H507L329 765H223ZM546 0L490 161H207L150 0H42L295 700H402L654 0H546ZM458 253L373 491Q355 540 349 570Q340 534 325 491L239 253H458Z" />
<glyph unicode="&#xc2;" glyph-name="Acircumflex" horiz-adv-x="696" d="M442 765L348 844L254 765H154L296 921H401L542 765H442ZM546 0L490 161H207L150 0H42L295 700H402L654 0H546ZM458 253L373 491Q355 540 349 570Q340 534 325 491L239 253H458Z" />
<glyph unicode="&#xc3;" glyph-name="Atilde" horiz-adv-x="696" d="M427 776Q389 776 337 800T262 824Q218 824 215 780H164Q164 910 269 910Q307 910 359 886T434 862Q478 862 481 906H532Q532 776 427 776ZM546 0L490 161H207L150 0H42L295 700H402L654 0H546ZM458
253L373 491Q355 540 349 570Q340 534 325 491L239 253H458Z" />
<glyph unicode="&#xc4;" glyph-name="Adieresis" horiz-adv-x="696" d="M284 780T258 780T214 798T195 843T213 887T258 906T302 888T321 843T303 799ZM464 780T438 780T394 798T375 843T393 887T438 906T482 888T501 843T483 799ZM546 0L490 161H207L150 0H42L295
700H402L654 0H546ZM458 253L373 491Q355 540 349 570Q340 534 325 491L239 253H458Z" />
<glyph unicode="&#xc5;" glyph-name="Aring" horiz-adv-x="696" d="M42 0L274 643Q225 681 225 741Q225 791 261 826T348 862T434 827T471 741Q471 681 422 644L654 0H546L490 161H207L150 0H42ZM329 694T348 694T380 707T393 741T380 774T348 788T316 775T303
741T316 708ZM239 253H458L373 491Q355 540 349 570Q340 534 325 491L239 253Z" />
<glyph unicode="&#xc6;" glyph-name="AE" horiz-adv-x="848" d="M-12 0L394 700H785V602H511V410H668V312H511V98H807V0H407V161H191L100 0H-12ZM245 254H407V546Q391 512 366 467L245 254Z" />
<glyph unicode="&#xc7;" glyph-name="Ccedilla" horiz-adv-x="650" d="M346 -239Q281 -239 246 -201L297 -164Q309 -179 336 -179Q358 -179 372 -167T386 -135Q386 -116 371 -104T332 -92Q308 -92 292 -102L272 -77L325 -10Q256 -4 204 29T122 115T79 226T65 350Q65
414 81 475T129 590T220 678T356 712Q448 712 509 672T594 573L499 529Q472 572 440 592T356 612Q306 612 269 588T212 524T183 441T173 350Q173 246 220 167T356 88Q444 88 498 178L595 141Q536 3 386 -10L362 -50Q417 -50 444 -74T472 -136Q472 -182 438 -210T346
-239Z" />
<glyph unicode="&#xc8;" glyph-name="Egrave" horiz-adv-x="601" d="M306 765L128 921H270L412 765H306ZM90 0V700H524V602H194V410H407V312H194V98H546V0H90Z" />
<glyph unicode="&#xc9;" glyph-name="Eacute" horiz-adv-x="601" d="M197 765L339 921H481L303 765H197ZM90 0V700H524V602H194V410H407V312H194V98H546V0H90Z" />
<glyph unicode="&#xca;" glyph-name="Ecircumflex" horiz-adv-x="601" d="M404 765L310 844L216 765H116L258 921H363L504 765H404ZM90 0V700H524V602H194V410H407V312H194V98H546V0H90Z" />
<glyph unicode="&#xcb;" glyph-name="Edieresis" horiz-adv-x="601" d="M252 780T226 780T182 798T163 843T181 887T226 906T270 888T289 843T271 799ZM432 780T406 780T362 798T343 843T361 887T406 906T450 888T469 843T451 799ZM90 0V700H524V602H194V410H407V312H194V98H546V0H90Z"
/>
<glyph unicode="&#xcc;" glyph-name="Igrave" horiz-adv-x="294" d="M167 765L-11 921H131L273 765H167ZM95 0V700H199V0H95Z" />
<glyph unicode="&#xcd;" glyph-name="Iacute" horiz-adv-x="294" d="M32 765L174 921H316L138 765H32ZM95 0V700H199V0H95Z" />
<glyph unicode="&#xce;" glyph-name="Icircumflex" horiz-adv-x="294" d="M241 765L147 844L53 765H-47L95 921H200L341 765H241ZM95 0V700H199V0H95Z" />
<glyph unicode="&#xcf;" glyph-name="Idieresis" horiz-adv-x="294" d="M83 780T57 780T13 798T-6 843T12 887T57 906T101 888T120 843T102 799ZM263 780T237 780T193 798T174 843T192 887T237 906T281 888T300 843T282 799ZM95 0V700H199V0H95Z" />
<glyph unicode="&#xd0;" glyph-name="Eth" horiz-adv-x="685" d="M90 302H25V398H90V700H286Q374 700 440 670T545 589T601 478T620 350Q620 285 603 227T548 116T443 32T282 0H90V302ZM299 98Q356 98 399 120T466 180T501 260T512 350Q512 455 461 528T310 602H194V398H345V302H194V98H299Z"
/>
<glyph unicode="&#xd1;" glyph-name="Ntilde" horiz-adv-x="710" d="M444 776Q406 776 354 800T279 824Q235 824 232 780H181Q181 910 286 910Q324 910 376 886T451 862Q495 862 498 906H549Q549 776 444 776ZM620 0H522L219 475Q205 497 191 527Q194 479 194
475V0H90V700H195L490 233Q501 215 519 179Q516 209 516 232V700H620V0Z" />
<glyph unicode="&#xd2;" glyph-name="Ograve" horiz-adv-x="740" d="M371 766L193 922H335L477 766H371ZM435 -12T370 -12T252 9T165 65T108 148T75 246T65 350T75 454T108 552T165 635T252 691T370 712T488 691T575 635T632 552T665 454T675 350T665 246T632
148T575 65T488 9ZM318 88T370 88T462 112T524 177T556 260T567 350Q567 398 557 442T524 526T462 588T370 612T278 588T216 523T184 440T173 350Q173 302 183 258T216 174T278 112Z" />
<glyph unicode="&#xd3;" glyph-name="Oacute" horiz-adv-x="740" d="M245 765L387 921H529L351 765H245ZM435 -12T370 -12T252 9T165 65T108 148T75 246T65 350T75 454T108 552T165 635T252 691T370 712T488 691T575 635T632 552T665 454T675 350T665 246T632
148T575 65T488 9ZM318 88T370 88T462 112T524 177T556 260T567 350Q567 398 557 442T524 526T462 588T370 612T278 588T216 523T184 440T173 350Q173 302 183 258T216 174T278 112Z" />
<glyph unicode="&#xd4;" glyph-name="Ocircumflex" horiz-adv-x="740" d="M464 765L370 844L276 765H176L318 921H423L564 765H464ZM435 -12T370 -12T252 9T165 65T108 148T75 246T65 350T75 454T108 552T165 635T252 691T370 712T488 691T575 635T632 552T665
454T675 350T665 246T632 148T575 65T488 9ZM318 88T370 88T462 112T524 177T556 260T567 350Q567 398 557 442T524 526T462 588T370 612T278 588T216 523T184 440T173 350Q173 302 183 258T216 174T278 112Z" />
<glyph unicode="&#xd5;" glyph-name="Otilde" horiz-adv-x="740" d="M449 776Q411 776 359 800T284 824Q240 824 237 780H186Q186 910 291 910Q329 910 381 886T456 862Q500 862 503 906H554Q554 776 449 776ZM435 -12T370 -12T252 9T165 65T108 148T75 246T65
350T75 454T108 552T165 635T252 691T370 712T488 691T575 635T632 552T665 454T675 350T665 246T632 148T575 65T488 9ZM318 88T370 88T462 112T524 177T556 260T567 350Q567 398 557 442T524 526T462 588T370 612T278 588T216 523T184 440T173 350Q173 302 183
258T216 174T278 112Z" />
<glyph unicode="&#xd6;" glyph-name="Odieresis" horiz-adv-x="740" d="M306 780T280 780T236 798T217 843T235 887T280 906T324 888T343 843T325 799ZM486 780T460 780T416 798T397 843T415 887T460 906T504 888T523 843T505 799ZM435 -12T370 -12T252 9T165
65T108 148T75 246T65 350T75 454T108 552T165 635T252 691T370 712T488 691T575 635T632 552T665 454T675 350T665 246T632 148T575 65T488 9ZM318 88T370 88T462 112T524 177T556 260T567 350Q567 398 557 442T524 526T462 588T370 612T278 588T216 523T184 440T173
350Q173 302 183 258T216 174T278 112Z" />
<glyph unicode="&#xd7;" glyph-name="multiply" horiz-adv-x="630" d="M316 270L158 111L83 186L242 344L84 502L156 574L314 416L472 575L547 500L388 342L546 184L474 112L316 270Z" />
<glyph unicode="&#xd8;" glyph-name="Oslash" horiz-adv-x="730" d="M65 -12L136 92Q60 191 60 350Q60 404 70 454T103 552T160 635T247 691T365 712Q460 712 529 667L560 712H665L593 607Q670 507 670 350Q670 296 660 246T627 148T570 65T483 9T365 -12Q270
-12 201 33L170 -12H65ZM203 189L470 580Q425 612 365 612Q313 612 273 588T211 523T179 440T168 350Q168 256 203 189ZM365 88Q417 88 457 112T519 177T551 260T562 350Q562 444 527 510L260 120Q305 88 365 88Z" />
<glyph unicode="&#xd9;" glyph-name="Ugrave" horiz-adv-x="697" d="M369 765L191 921H333L475 765H369ZM348 -12Q229 -12 157 53T85 265V700H189V265Q189 167 231 128T348 88T465 127T508 265V700H612V265Q612 119 541 54T348 -12Z" />
<glyph unicode="&#xda;" glyph-name="Uacute" horiz-adv-x="697" d="M241 765L383 921H525L347 765H241ZM348 -12Q229 -12 157 53T85 265V700H189V265Q189 167 231 128T348 88T465 127T508 265V700H612V265Q612 119 541 54T348 -12Z" />
<glyph unicode="&#xdb;" glyph-name="Ucircumflex" horiz-adv-x="697" d="M443 765L349 844L255 765H155L297 921H402L543 765H443ZM348 -12Q229 -12 157 53T85 265V700H189V265Q189 167 231 128T348 88T465 127T508 265V700H612V265Q612 119 541 54T348 -12Z" />
<glyph unicode="&#xdc;" glyph-name="Udieresis" horiz-adv-x="697" d="M285 780T259 780T215 798T196 843T214 887T259 906T303 888T322 843T304 799ZM465 780T439 780T395 798T376 843T394 887T439 906T483 888T502 843T484 799ZM348 -12Q229 -12 157 53T85
265V700H189V265Q189 167 231 128T348 88T465 127T508 265V700H612V265Q612 119 541 54T348 -12Z" />
<glyph unicode="&#xdd;" glyph-name="Yacute" horiz-adv-x="666" d="M226 765L368 921H510L332 765H226ZM281 0V274L35 700H154L333 380L512 700H631L385 275V0H281Z" />
<glyph unicode="&#xde;" glyph-name="Thorn" horiz-adv-x="642" d="M90 0V700H194V570H371Q490 570 546 508T602 356Q602 272 544 207T371 142H194V0H90ZM377 242Q437 242 465 275T494 356Q494 401 467 435T377 470H194V242H377Z" />
<glyph unicode="&#xdf;" glyph-name="germandbls" horiz-adv-x="558" d="M65 -200V473Q65 594 126 653T277 712Q369 712 425 662T482 529Q482 479 459 441T388 385Q450 366 484 320T518 211Q518 108 459 48T306 -12Q253 -12 211 4L264 90Q285 84 307 84Q349 84
381 116T414 208Q414 260 380 296T276 332H254V428H276Q322 428 350 452T378 523Q378 566 352 591T278 616Q169 616 169 476V-152L65 -200Z" />
<glyph unicode="&#xe0;" glyph-name="agrave" horiz-adv-x="532" d="M262 576L84 732H226L368 576H262ZM367 0V44Q313 -12 227 -12Q146 -12 96 32T45 159Q45 242 102 285T241 328Q316 328 367 298V326Q367 383 341 407T258 431Q174 431 112 385L81 470Q158 523
272 523Q310 523 340 517T401 492T449 432T467 331V0H367ZM246 80Q318 80 367 135V213Q320 238 258 238Q208 238 177 219T145 159Q145 122 171 101T246 80Z" />
<glyph unicode="&#xe1;" glyph-name="aacute" horiz-adv-x="532" d="M167 576L309 732H451L273 576H167ZM367 0V44Q313 -12 227 -12Q146 -12 96 32T45 159Q45 242 102 285T241 328Q316 328 367 298V326Q367 383 341 407T258 431Q174 431 112 385L81 470Q158 523
272 523Q310 523 340 517T401 492T449 432T467 331V0H367ZM246 80Q318 80 367 135V213Q320 238 258 238Q208 238 177 219T145 159Q145 122 171 101T246 80Z" />
<glyph unicode="&#xe2;" glyph-name="acircumflex" horiz-adv-x="532" d="M366 576L272 655L178 576H78L220 732H325L466 576H366ZM367 0V44Q313 -12 227 -12Q146 -12 96 32T45 159Q45 242 102 285T241 328Q316 328 367 298V326Q367 383 341 407T258 431Q174 431
112 385L81 470Q158 523 272 523Q310 523 340 517T401 492T449 432T467 331V0H367ZM246 80Q318 80 367 135V213Q320 238 258 238Q208 238 177 219T145 159Q145 122 171 101T246 80Z" />
<glyph unicode="&#xe3;" glyph-name="atilde" horiz-adv-x="532" d="M351 587Q313 587 261 611T186 635Q142 635 139 591H88Q88 721 193 721Q231 721 283 697T358 673Q402 673 405 717H456Q456 587 351 587ZM367 0V44Q313 -12 227 -12Q146 -12 96 32T45 159Q45
242 102 285T241 328Q316 328 367 298V326Q367 383 341 407T258 431Q174 431 112 385L81 470Q158 523 272 523Q310 523 340 517T401 492T449 432T467 331V0H367ZM246 80Q318 80 367 135V213Q320 238 258 238Q208 238 177 219T145 159Q145 122 171 101T246 80Z"
/>
<glyph unicode="&#xe4;" glyph-name="adieresis" horiz-adv-x="532" d="M208 591T182 591T138 609T119 654T137 698T182 717T226 699T245 654T227 610ZM388 591T362 591T318 609T299 654T317 698T362 717T406 699T425 654T407 610ZM367 0V44Q313 -12 227 -12Q146
-12 96 32T45 159Q45 242 102 285T241 328Q316 328 367 298V326Q367 383 341 407T258 431Q174 431 112 385L81 470Q158 523 272 523Q310 523 340 517T401 492T449 432T467 331V0H367ZM246 80Q318 80 367 135V213Q320 238 258 238Q208 238 177 219T145 159Q145 122
171 101T246 80Z" />
<glyph unicode="&#xe5;" glyph-name="aring" horiz-adv-x="532" d="M322 567T272 567T186 603T149 689T185 774T272 810T358 775T395 689T359 603ZM253 642T272 642T304 655T317 689T304 722T272 736T240 723T227 689T240 656ZM367 0V44Q313 -12 227 -12Q146 -12
96 32T45 159Q45 242 102 285T241 328Q316 328 367 298V326Q367 383 341 407T258 431Q174 431 112 385L81 470Q158 523 272 523Q310 523 340 517T401 492T449 432T467 331V0H367ZM246 80Q318 80 367 135V213Q320 238 258 238Q208 238 177 219T145 159Q145 122 171
101T246 80Z" />
<glyph unicode="&#xe6;" glyph-name="ae" horiz-adv-x="858" d="M227 -12Q146 -12 96 32T45 159Q45 242 102 285T241 328Q316 328 367 298V326Q367 383 341 407T258 431Q174 431 112 385L81 470Q158 523 272 523Q384 523 428 457Q491 523 593 523Q689 523 751
462T813 284Q813 241 809 217H466Q467 156 505 118T594 80Q660 80 700 132L768 62Q706 -12 593 -12Q478 -12 414 69Q336 -12 227 -12ZM466 305H708Q707 368 673 399T593 431Q540 431 505 400T466 305ZM246 80Q318 80 367 135V213Q320 238 258 238Q208 238 177 219T145
159Q145 122 171 101T246 80Z" />
<glyph unicode="&#xe7;" glyph-name="ccedilla" horiz-adv-x="518" d="M258 -239Q193 -239 158 -201L209 -164Q221 -179 248 -179Q270 -179 284 -167T298 -135Q298 -116 283 -104T244 -92Q220 -92 204 -102L184 -77L238 -9Q150 2 100 71T50 255Q50 380 110 451T273
523Q422 523 466 391L367 357Q342 423 277 423Q219 423 188 379T156 255Q156 177 187 133T273 88Q347 88 369 163L468 132Q430 1 298 -11L274 -50Q329 -50 356 -74T384 -136Q384 -182 350 -210T258 -239Z" />
<glyph unicode="&#xe8;" glyph-name="egrave" horiz-adv-x="547" d="M302 576L124 732H266L408 576H302ZM282 -12Q175 -12 113 59T50 256T113 452T282 523Q378 523 440 462T502 284Q502 241 498 217H154Q155 156 193 118T283 80Q349 80 389 132L457 62Q395 -12
282 -12ZM154 301H398Q397 367 363 399T282 431Q229 431 194 400T154 301Z" />
<glyph unicode="&#xe9;" glyph-name="eacute" horiz-adv-x="547" d="M157 576L299 732H441L263 576H157ZM282 -12Q175 -12 113 59T50 256T113 452T282 523Q378 523 440 462T502 284Q502 241 498 217H154Q155 156 193 118T283 80Q349 80 389 132L457 62Q395 -12
282 -12ZM154 301H398Q397 367 363 399T282 431Q229 431 194 400T154 301Z" />
<glyph unicode="&#xea;" glyph-name="ecircumflex" horiz-adv-x="547" d="M376 576L282 655L188 576H88L230 732H335L476 576H376ZM282 -12Q175 -12 113 59T50 256T113 452T282 523Q378 523 440 462T502 284Q502 241 498 217H154Q155 156 193 118T283 80Q349 80
389 132L457 62Q395 -12 282 -12ZM154 301H398Q397 367 363 399T282 431Q229 431 194 400T154 301Z" />
<glyph unicode="&#xeb;" glyph-name="edieresis" horiz-adv-x="547" d="M218 591T192 591T148 609T129 654T147 698T192 717T236 699T255 654T237 610ZM398 591T372 591T328 609T309 654T327 698T372 717T416 699T435 654T417 610ZM282 -12Q175 -12 113 59T50
256T113 452T282 523Q378 523 440 462T502 284Q502 241 498 217H154Q155 156 193 118T283 80Q349 80 389 132L457 62Q395 -12 282 -12ZM154 301H398Q397 367 363 399T282 431Q229 431 194 400T154 301Z" />
<glyph unicode="&#xec;" glyph-name="igrave" horiz-adv-x="256" d="M128 576L-50 732H92L234 576H128ZM76 0V511H180V0H76Z" />
<glyph unicode="&#xed;" glyph-name="iacute" horiz-adv-x="256" d="M22 576L164 732H306L128 576H22ZM76 0V511H180V0H76Z" />
<glyph unicode="&#xee;" glyph-name="icircumflex" horiz-adv-x="256" d="M222 576L128 655L34 576H-66L76 732H181L322 576H222ZM76 0V511H180V0H76Z" />
<glyph unicode="&#xef;" glyph-name="idieresis" horiz-adv-x="256" d="M64 591T38 591T-6 609T-25 654T-7 698T38 717T82 699T101 654T83 610ZM244 591T218 591T174 609T155 654T173 698T218 717T262 699T281 654T263 610ZM76 0V511H180V0H76Z" />
<glyph unicode="&#xf0;" glyph-name="eth" horiz-adv-x="567" d="M283 -12Q182 -12 116 54T50 221Q50 323 115 389T273 456Q318 456 355 437T410 386Q386 501 309 563L247 498L192 550L242 602Q194 621 134 624V712Q232 709 308 672L366 732L421 679L374 630Q517
514 517 269Q517 145 458 67T283 -12ZM283 86Q338 86 375 124T413 220Q413 280 376 319T282 358Q226 358 190 320T154 221Q154 164 191 125T283 86Z" />
<glyph unicode="&#xf1;" glyph-name="ntilde" horiz-adv-x="565" d="M368 587Q330 587 278 611T203 635Q159 635 156 591H105Q105 721 210 721Q248 721 300 697T375 673Q419 673 422 717H473Q473 587 368 587ZM391 0V305Q391 366 363 395T289 425Q179 425 179
307V0H75V511H179V462Q227 523 311 523Q495 523 495 305V0H391Z" />
<glyph unicode="&#xf2;" glyph-name="ograve" horiz-adv-x="567" d="M304 576L126 732H268L410 576H304ZM391 -12T283 -12T113 59T50 255T112 451T283 523T454 452T517 255T454 59ZM283 86Q343 86 378 131T413 255T378 379T283 425Q224 425 189 380T154 255Q154
177 189 132T283 86Z" />
<glyph unicode="&#xf3;" glyph-name="oacute" horiz-adv-x="567" d="M159 576L301 732H443L265 576H159ZM391 -12T283 -12T113 59T50 255T112 451T283 523T454 452T517 255T454 59ZM283 86Q343 86 378 131T413 255T378 379T283 425Q224 425 189 380T154 255Q154
177 189 132T283 86Z" />
<glyph unicode="&#xf4;" glyph-name="ocircumflex" horiz-adv-x="567" d="M378 576L284 655L190 576H90L232 732H337L478 576H378ZM391 -12T283 -12T113 59T50 255T112 451T283 523T454 452T517 255T454 59ZM283 86Q343 86 378 131T413 255T378 379T283 425Q224
425 189 380T154 255Q154 177 189 132T283 86Z" />
<glyph unicode="&#xf5;" glyph-name="otilde" horiz-adv-x="567" d="M363 587Q325 587 273 611T198 635Q154 635 151 591H100Q100 721 205 721Q243 721 295 697T370 673Q414 673 417 717H468Q468 587 363 587ZM391 -12T283 -12T113 59T50 255T112 451T283 523T454
452T517 255T454 59ZM283 86Q343 86 378 131T413 255T378 379T283 425Q224 425 189 380T154 255Q154 177 189 132T283 86Z" />
<glyph unicode="&#xf6;" glyph-name="odieresis" horiz-adv-x="567" d="M220 591T194 591T150 609T131 654T149 698T194 717T238 699T257 654T239 610ZM400 591T374 591T330 609T311 654T329 698T374 717T418 699T437 654T419 610ZM391 -12T283 -12T113 59T50
255T112 451T283 523T454 452T517 255T454 59ZM283 86Q343 86 378 131T413 255T378 379T283 425Q224 425 189 380T154 255Q154 177 189 132T283 86Z" />
<glyph unicode="&#xf7;" glyph-name="divide" horiz-adv-x="630" d="M342 471T314 471T268 489T249 534T267 579T314 598T361 579T380 534T361 490ZM80 293V393H550V293H80ZM342 88T314 88T268 106T249 151Q249 178 267 196T314 215T361 196T380 151T361 107Z" />
<glyph unicode="&#xf8;" glyph-name="oslash" horiz-adv-x="567" d="M517 523L461 443Q517 371 517 255Q517 130 454 59T283 -12Q216 -12 164 17L144 -12H50L105 68Q50 139 50 255Q50 380 112 451T283 523Q350 523 402 494L422 523H517ZM154 255Q154 201 171 162L343
410Q318 425 283 425Q224 425 189 380T154 255ZM413 255Q413 309 396 349L223 101Q248 86 283 86Q343 86 378 131T413 255Z" />
<glyph unicode="&#xf9;" glyph-name="ugrave" horiz-adv-x="565" d="M298 576L120 732H262L404 576H298ZM386 0V49Q338 -12 254 -12Q70 -12 70 206V511H174V206Q174 145 202 116T276 86Q386 86 386 204V511H490V0H386Z" />
<glyph unicode="&#xfa;" glyph-name="uacute" horiz-adv-x="565" d="M153 576L295 732H437L259 576H153ZM386 0V49Q338 -12 254 -12Q70 -12 70 206V511H174V206Q174 145 202 116T276 86Q386 86 386 204V511H490V0H386Z" />
<glyph unicode="&#xfb;" glyph-name="ucircumflex" horiz-adv-x="565" d="M372 576L278 655L184 576H84L226 732H331L472 576H372ZM386 0V49Q338 -12 254 -12Q70 -12 70 206V511H174V206Q174 145 202 116T276 86Q386 86 386 204V511H490V0H386Z" />
<glyph unicode="&#xfc;" glyph-name="udieresis" horiz-adv-x="565" d="M214 591T188 591T144 609T125 654T143 698T188 717T232 699T251 654T233 610ZM394 591T368 591T324 609T305 654T323 698T368 717T412 699T431 654T413 610ZM386 0V49Q338 -12 254 -12Q70
-12 70 206V511H174V206Q174 145 202 116T276 86Q386 86 386 204V511H490V0H386Z" />
<glyph unicode="&#xfd;" glyph-name="yacute" horiz-adv-x="538" d="M143 576L285 732H427L249 576H143ZM137 -194L216 9L25 511H128L254 177Q263 154 268 132Q273 154 282 177L409 511H513L243 -194H137Z" />
<glyph unicode="&#xfe;" glyph-name="thorn" horiz-adv-x="562" d="M302 -12Q224 -12 179 44V-153L75 -201V663L179 712V470Q227 523 302 523Q399 523 455 452T512 255Q512 131 455 60T302 -12ZM287 86Q346 86 377 129T408 255Q408 331 376 378T287 425Q215 425
179 367V145Q223 86 287 86Z" />
<glyph unicode="&#xff;" glyph-name="ydieresis" horiz-adv-x="538" d="M204 591T178 591T134 609T115 654T133 698T178 717T222 699T241 654T223 610ZM384 591T358 591T314 609T295 654T313 698T358 717T402 699T421 654T403 610ZM137 -194L216 9L25 511H128L254
177Q263 154 268 132Q273 154 282 177L409 511H513L243 -194H137Z" />
<glyph unicode="&#x2013;" glyph-name="endash" horiz-adv-x="495" d="M50 242V332H445V242H50Z" />
<glyph unicode="&#x2014;" glyph-name="emdash" horiz-adv-x="575" d="M-5 242V332H580V242H-5Z" />
<glyph unicode="&#x2018;" glyph-name="quoteleft" horiz-adv-x="223" d="M114 437Q80 437 58 460T35 528Q35 583 65 633T143 712L182 687Q164 671 145 642T121 583Q148 581 168 562T188 513Q188 480 166 459T114 437Z" />
<glyph unicode="&#x2019;" glyph-name="quoteright" horiz-adv-x="223" d="M41 462Q59 478 78 507T102 566Q75 568 55 587T35 636Q35 669 57 690T109 712Q143 712 165 689T188 621Q188 566 158 516T80 437L41 462Z" />
<glyph unicode="&#x201a;" glyph-name="quotesinglbase" horiz-adv-x="223" d="M41 -116Q59 -100 78 -71T102 -12Q75 -10 55 9T35 58Q35 91 57 112T109 134Q143 134 165 111T188 43Q188 -12 158 -62T80 -141L41 -116Z" />
<glyph unicode="&#x201c;" glyph-name="quotedblleft" horiz-adv-x="446" d="M114 437Q80 437 58 460T35 528Q35 583 65 633T143 712L182 687Q164 671 145 642T121 583Q148 581 168 562T188 513Q188 480 166 459T114 437ZM337 437Q303 437 281 460T258 528Q258
583 288 633T366 712L405 687Q387 671 368 642T344 583Q371 581 391 562T411 513Q411 480 389 459T337 437Z" />
<glyph unicode="&#x201d;" glyph-name="quotedblright" horiz-adv-x="446" d="M41 462Q59 478 78 507T102 566Q75 568 55 587T35 636Q35 669 57 690T109 712Q143 712 165 689T188 621Q188 566 158 516T80 437L41 462ZM264 462Q282 478 301 507T325 566Q298 568
278 587T258 636Q258 669 280 690T332 712Q366 712 388 689T411 621Q411 566 381 516T303 437L264 462Z" />
<glyph unicode="&#x201e;" glyph-name="quotedblbase" horiz-adv-x="446" d="M41 -116Q59 -100 78 -71T102 -12Q75 -10 55 9T35 58Q35 91 57 112T109 134Q143 134 165 111T188 43Q188 -12 158 -62T80 -141L41 -116ZM264 -116Q282 -100 301 -71T325 -12Q298 -10
278 9T258 58Q258 91 280 112T332 134Q366 134 388 111T411 43Q411 -12 381 -62T303 -141L264 -116Z" />
<glyph unicode="&#x2022;" glyph-name="bullet" horiz-adv-x="406" d="M202 213Q142 213 101 253T60 350Q60 408 101 448T202 489T304 448T346 350T305 253T202 213Z" />
<glyph unicode="&#x2039;" glyph-name="guilsinglleft" horiz-adv-x="310" d="M182 0L30 256L182 511H295L143 256L295 0H182Z" />
<glyph unicode="&#x203a;" glyph-name="guilsinglright" horiz-adv-x="310" d="M15 0L167 256L15 511H128L280 256L128 0H15Z" />
</font>
</defs>
</svg>
