<?xml version="1.0" standalone="no"?>
<!DOCTYPE svg PUBLIC "-//W3C//DTD SVG 1.1//EN" "http://www.w3.org/Graphics/SVG/1.1/DTD/svg11.dtd" >
<svg xmlns="http://www.w3.org/2000/svg">
<metadata>
This is a custom SVG webfont generated by Font Squirrel.
Copyright   : Bright Ideas Magazine
</metadata>
<defs>
<font id="webfontuOn4Eelr" horiz-adv-x="622" >
<font-face units-per-em="2048" ascent="1638" descent="-410" />
<missing-glyph horiz-adv-x="589" />
<glyph unicode=" "  horiz-adv-x="589" />
<glyph unicode="&#x09;" horiz-adv-x="589" />
<glyph unicode="&#xa0;" horiz-adv-x="589" />
<glyph unicode="!" horiz-adv-x="827" d="M322 -33q0 20 20 49q23 31 41 31q20 -8 20 -45q0 -27 -18 -49q-18 -20 -43 -21q-20 0 -20 35zM410 182q0 14 8 25q4 4 6 8t6 10l10 15q43 74 172 333q145 291 248 527q0 10 17 20q14 8 24 8q31 -2 31 -32q0 -8 -2 -13q-31 -80 -92 -198l-115 -211l-258 -484 q-14 -31 -39 -24q-16 6 -16 16z" />
<glyph unicode="&#x22;" horiz-adv-x="458" d="M432 864l143 293q6 12 21 12q45 0 45 -32q0 -4 -4 -9q-80 -141 -188 -278q-8 -10 -17 -4q-6 4 0 18zM571 864l144 293q6 12 20 12q45 0 45 -32q0 -4 -4 -9q-80 -141 -188 -278q-8 -10 -17 -4q-6 4 0 18z" />
<glyph unicode="#" horiz-adv-x="798" d="M47 442q0 14 16 21q100 31 236 59l115 209q-129 -23 -219 -49q-16 -4 -16.5 12.5t16.5 20.5q80 23 243 59q96 170 133 246q10 14 23 14q25 0 12 -26l-119 -222q151 37 265 56q111 205 174 344q8 14 18 14t10 -10q0 -2 -1 -4t-1 -4q-68 -166 -151 -332q10 2 56 9t83 11 l29 4q25 2 24 -16q0 -20 -24 -27l-31 -6q-80 -10 -164 -24l-104 -197q37 10 82 17l86 10q20 2 20 -19q0 -27 -29 -30l-77 -11q-18 -2 -111 -22q-27 -45 -102 -184l-197 -359q-14 -20 -33 -20q-20 0 -20 16q0 4 4 12l199 365l88 158q-90 -18 -254 -48q-57 -102 -168 -280 q-18 -35 -41 0q-4 6 -4 22q0 -5 3 3q1 2 5 14q63 76 151 229q-104 -18 -202 -49q-23 -6 -23 14zM352 535q31 6 117 26.5t133 30.5h10l111 201q-8 -2 -32.5 -7.5t-39.5 -7.5q-78 -18 -188 -39l-76 -139z" />
<glyph unicode="$" horiz-adv-x="677" d="M43 160q0 63 33 129q8 16 28 16q23 0 17 -24q-23 -68 -23 -97q0 -18 11 -43q23 -43 57 -43q23 0 74 11q4 8 6 16t10 27.5t20 52.5l134 348q-51 164 -52 223q0 31 7 55q12 63 81 127q68 61 154 84l90 220h4v2h6q10 0 11 -15l-80 -198q41 6 84 -4q49 -12 49 -66 q0 -29 -8 -59q-18 -63 -86 -95q-10 -2 -23 0q-14 4 -18 11q-14 14 -11 34q2 23 14.5 23t18.5 -14q6 -16 17 -11q45 31 45 76q0 37 -39 55q-35 4 -66 -6l-159 -420q49 -147 49 -215q0 -61 -25 -112q-49 -117 -215 -185q-39 -117 -76 -247q0 -18 -22 -15q-10 0 -10 21 q20 80 69 227l-12 -4q-6 -2 -12 -2q-25 -4 -35 -4q-51 0 -84 35t-33 86zM279 121q109 39 143 106q29 61 29 125q0 53 -27 154l-117 -311zM414 760q0 -51 22 -135l142 362q-109 -33 -142 -113q-22 -55 -22 -114z" />
<glyph unicode="%" horiz-adv-x="1130" d="M137 -174q150 195 502 602l485 545q-57 -45 -149 -90q-205 -106 -293 -107q-41 0 -78 12q-154 -164 -319 -163q-12 0 -37 4q-20 4 -37 20q-23 23 -23 49q0 18 9 35q120 187 436 295q29 20 59 21q35 0 47 -35q6 -23 -6 -47q-35 -63 -96 -138q37 -8 61 -8q139 0 336 135 q111 78 314 256l34 39q14 14 28.5 0t2.5 -28l-39 -41l-49 -52q-545 -561 -1141 -1325q-18 -25 -39 -12q-20 10 -8 33zM240 688q14 -18 57 -20q156 23 268 141q-29 18 -28 65q0 51 24 89q12 16 21 24q-194 -77 -338 -239q-20 -35 -4 -60zM575 889q0 -28 25 -43q51 57 100 137 q4 16 -2 21q-18 16 -45 0q-78 -54 -78 -115zM651 86q70 199 283 340q-2 6 6 18q12 4 21 -2q2 2 10 6.5t12 8.5q6 2 8 -2q0 -4 -2 -6q-8 -8 -20 -17q25 -43 24.5 -102.5t-24.5 -118.5q-100 -225 -260 -225q-35 0 -50 14q-31 25 -8 86zM690 76q-2 -20 12 -33q12 -12 50 0 q88 35 145 112.5t57 172.5q0 35 -14 82q-201 -164 -250 -334z" />
<glyph unicode="&#x26;" horiz-adv-x="1449" d="M190 160q0 33 9 59q31 100 92 176q41 47 133 115q129 94 250 137q-78 31 -78 119q0 25 10 61q37 131 137 207q102 78 230 78q53 0 96 -24.5t43 -69.5q0 -76 -98 -137q-51 -35 -127 -35q-47 0 -66 45q-4 8 6 37q8 20 35 20q12 -33 47 -35q51 -6 86 15q39 23 45 28 q22 18 31 50v12q0 55 -108 55q-113 0 -199 -67.5t-117 -180.5q-2 -8 -2 -24q0 -43 37 -78q43 -39 104 -45q16 0 17 -16q0 -23 -21 -25q-193 -43 -338 -156q-80 -59 -112 -98q-47 -57 -76 -154q-8 -25 -8 -53q0 -80 69 -131q59 -47 160 -53q274 -18 463 235q33 45 33 127 q0 119 -82 156h-17q-186 0 -204 -117q-12 -74 65 -80q29 -4 41 9q2 2 23 32q6 10 16 4t6 -20q-20 -90 -98 -90q-49 0 -78 35q-31 35 -27 100q2 70 89 121q74 43 167 43q90 0 225.5 -51.5t200.5 -51.5q137 0 224 93q84 90 84 239q0 41 -43 84q-45 45 -80 45q-188 0 -189 -157 q0 -59 86 -60q39 0 74 41q6 8 14 8q16 0 17 -26q0 -25 -39 -58q-35 -29 -66 -28q-55 0 -90 32q-37 35 -37 82q0 109 63.5 170.5t166.5 55.5q68 -4 119 -70q45 -59 45 -119q0 -170 -97 -280q-102 -117 -256 -117q-80 0 -180 49q-131 63 -168 72q63 -57 64 -146 q0 -94 -39 -145q-223 -293 -504 -281q-111 6 -193 70q-86 68 -86 162z" />
<glyph unicode="'" horiz-adv-x="325" d="M432 864l143 293q6 12 21 12q45 0 45 -32q0 -4 -4 -9q-80 -141 -188 -278q-8 -10 -17 -4q-6 4 0 18z" />
<glyph unicode="(" horiz-adv-x="415" d="M49 147q0 123 37 263q25 102 135 284q119 201 258 340l117 105q2 2 8 2q8 0 10 -8.5t-4 -12.5q-43 -37 -108 -102q-126 -129 -246 -344q-82 -145 -119 -275q-33 -119 -33 -252q0 -221 70 -284q6 -6 6 -17q0 -25 -22 -24q-8 0 -17 8q-92 96 -92 317z" />
<glyph unicode=")" horiz-adv-x="415" d="M-129 -153.5q-2 8.5 4 12.5q43 37 111 104q126 129 245 344q78 139 117 275q35 127 35 252q0 221 -70 284q-8 8 -8 17q0 23 25 22q10 0 16 -6q90 -92 90 -317q0 -125 -37 -263q-25 -102 -135 -284q-121 -205 -258 -342l-115 -103q-4 -4 -8 -4q-10 0 -12 8.5z" />
<glyph unicode="*" horiz-adv-x="593" d="M281 780q0 10 12 23l26 26q37 31 148 95q-80 49 -109 104q-2 8 9 21q10 10 20 10t10 -8q12 -27 47 -43q35 -20 66 -35l12 -4l64 166q6 23 30 22q18 0 15 -16q-12 -51 -49 -152q96 61 157 111q12 8 19 8q16 0 16 -16q0 -10 -10 -19q-74 -63 -184 -129l77 -24 q35 -12 50 -23q12 -9 24 -43q6 -10 -8 -25q-12 -12 -25 -12q-10 0 -14 10q-14 25 -59 39q-41 10 -82 27l-78 -178q-6 -16 -23 -17q-20 0 -14 21l66 174q-125 -78 -146 -92l-26 -27q-12 -12 -23 -12q-18 0 -18 18z" />
<glyph unicode="+" d="M201 466.5q0 22.5 26 27.5q16 0 70.5 1t93.5 1l56 2l10 41l45 174q8 39 37 39q25 0 22 -27l-47 -186q-6 -27 -12 -41h16q4 0 10.5 1t8.5 1q23 0 81 1t93 1q41 0 41 -27q0 -25 -29 -31h-184h-52l-12 -51l-45 -164q-8 -27 -31 -26q-22 0 -18 24l41 166q6 27 12 49h-43h-84 q-25 0 -51.5 1t-28.5 1q-26 0 -26 22.5z" />
<glyph unicode="," horiz-adv-x="290" d="M35 -150q43 51 76 115q29 57 26 68q-12 63 56 82q10 2 15 -7.5t5 -31.5q0 -20 -55 -94q-61 -86 -123 -146q-8 6 0 14z" />
<glyph unicode="-" d="M201 514q0 23 26 25q37 4 99 4q8 0 131 4h151q39 0 39 -24.5t-26 -30.5q-16 0 -71.5 -1.5t-92.5 -1.5h-131h-52h-47q-26 0 -26 25z" />
<glyph unicode="." horiz-adv-x="290" d="M125 18q-6 25 16 58q20 31 52 39q10 2 15 -7.5t5 -31.5q0 -16 -25 -47q-23 -29 -34 -29q-29 0 -29 18z" />
<glyph unicode="/" horiz-adv-x="813" d="M190 -92q0 9 7 18l223 277l473 598q39 45 270 336q10 10 19 10q25 0 24 -23q0 -12 -4 -16l-266 -340l-471 -602l-223 -275q-8 -12 -23 -12q-29 0 -29 29z" />
<glyph unicode="0" horiz-adv-x="786" d="M68 121q0 68 26 174q37 158 185 377q72 115 206 252q186 195 344 247q20 2 21 -10q12 -18 -37 -33h41q131 -10 131 -200q0 -72 -18 -144q-39 -156 -140 -323q-160 -268 -342 -432q-120 -104 -252 -105q-92 0 -131 53q-34 58 -34 144zM125 154q0 -68 37 -123 q25 -39 106 -33q180 33 369 262q90 109 184 285q86 160 111 297q6 27 6 63q0 174 -100 174q-2 0 -10.5 -1t-10.5 -1q-111 -23 -160 -125q-39 -84 -10 -159q4 -25 -18 -33q-29 -10 -29 20q-14 39 -14 78q0 70 28 115q2 4 10.5 16t12.5 19l-4 -7q-131 -131 -160 -163 q-92 -96 -156 -191q-127 -186 -167 -352q-25 -92 -25 -141z" />
<glyph unicode="1" horiz-adv-x="512" d="M113 -6q27 68 213 428q14 29 344 604q-90 -45 -217 -45q-18 0 -17 20q0 10 23 15q104 18 143 33q84 27 137 86q14 18 33 14q10 0 14 -14q4 -10 -10 -27l-24 -31q-393 -662 -574 -1083q-6 -27 -31 -27q-12 0 -24 10.5t-10 16.5z" />
<glyph unicode="2" horiz-adv-x="1028" d="M8 27q0 20 10 41q43 92 158 147q94 47 203 53q102 6 180 -26q326 233 516 565q49 89 49 178v31q-2 45 -49 61q-53 20 -123 2q-88 -170 -221 -225q-41 -18 -59 4q-18 20 16 72q6 9 25 31q80 102 217 151q31 61 61 160q8 18 19 16q20 0 12 -20q-18 -76 -47 -144 q68 14 125 -4q72 -27 86 -82q6 -25 6 -53q0 -61 -64 -184q-180 -334 -528 -582q2 0 3 -2t4 -4l9 -6l218 -187q127 -109 247 -135q33 0 19 -26q-4 -29 -33 -19q-131 20 -260 129l-219 193q-18 15 -37 24l-24.5 -17t-28.5 -19q-139 -86 -205 -117q-121 -59 -217 -68 q-68 -6 -68 62zM84 55q-8 -16 6 -16q96 0 203 49q37 15 184 98l29 19q-61 23 -133 22q-86 0 -164 -43q-88 -51 -125 -129zM733 913q100 31 170 148q-92 -43 -158 -137z" />
<glyph unicode="3" horiz-adv-x="876" d="M23 39q0 98 106 201q20 14 35 6q29 -16 4 -37q-63 -78 -57 -154q10 -106 151 -106q78 0 158 37q309 145 469 430q53 96 53 182q0 141 -133 178q-102 -66 -211 -98q-45 -12 -59 8q-4 12 -4 33q18 66 124 94q88 23 150 14l8 7q143 113 150 204q-4 25 -39 25 q-162 -23 -258 -115q-8 -8 -15 -16q-31 -20 -47 2q-8 14 4 27l4 8q57 63 150 151q6 4 18 4q20 0 21 -16q0 -8 -8 -16l-25 -25q109 57 182 57q41 0 62 -20q22 -22 18 -55q-12 -111 -170 -232q141 -46 142 -203q0 -100 -66 -215q-172 -315 -504 -465q-95 -43 -190 -43 q-152 0 -209 97q-14 24 -14 51zM600 733zM600 733q61 6 139 51q-20 0 -49 -4q-63 -12 -90 -47z" />
<glyph unicode="4" horiz-adv-x="946" d="M43 348q-12 20 12 33l45 27q12 8 107 65q217 129 321 215q166 137 240 297q23 49 12 100q-12 53 -78 43l-8 -2v2q-10 0 -10 11q0 14 10 14q23 12 43 12q66 0 88 -59q25 -72 -4 -139q-106 -238 -459 -459q72 2 148 -23q98 -35 164 -49l256 492q6 20 26 14q29 -4 15 -33 l-250 -483q49 -10 113 -10q96 0 176 33q20 12 37 -15q12 -23 -15 -43q-84 -39 -188 -39q-70 0 -150 19q-90 -174 -108 -215q-74 -158 -80 -217q0 -6 -14.5 -20.5t-22.5 -14.5q-16 -4 -26.5 4t-10.5 18q16 96 94 232l121 225l-125 45q-72 27 -129 27q-106 0 -203 -52l-77 -49 l-41 -22q-23 0 -29 16z" />
<glyph unicode="5" horiz-adv-x="950" d="M31 178q0 102 41 180q47 96 139 103q55 4 100 -27q45 -29 41 -82q-2 -33 -24 -33q-12 0 -19 11v22q2 33 -26.5 51.5t-69.5 14.5q-63 -6 -100 -82q-33 -66 -33 -135q0 -59 35 -123q25 -39 71 -51q78 -18 146 4q178 59 268 135q315 260 315 508q0 20 -4 57q-12 94 -73 100 q-16 2 -47 3q-104 0 -238 -66q-23 -12 -35 8q-8 14 4 29q98 101 246 313q23 33 51 23q71 -25 142 -25q101 0 184 49q20 12 29 -4q12 -16 -11 -33q-76 -63 -182 -63q-63 0 -180 31q-29 -57 -176 -242q104 45 217 51q57 2 98 -47q33 -41 43 -110q10 -94 -22 -181 q-76 -207 -242 -366q-164 -158 -377 -226q-76 -25 -127 -24q-39 0 -70 12q-114 43 -114 215z" />
<glyph unicode="6" horiz-adv-x="724" d="M39 147q0 160 176 390q195 246 471 471q301 246 762 405q16 8 20 -6q12 -23 -10 -25q-498 -186 -817 -471q-229 -205 -387 -401q-154 -195 -154 -348q0 -57 25 -94q51 -82 151 -82q72 0 156 45q180 96 176 205q0 31 -47 30q-211 -6 -358 -223q-25 -16 -35 -6 q-12 12 -2 26q39 76 104 134q169 141 308 129q70 -6 88 -43q8 -16 8 -41q0 -78 -58 -136q-63 -63 -161 -112q-106 -53 -195 -53q-119 0 -192 92q-29 53 -29 114z" />
<glyph unicode="7" horiz-adv-x="765" d="M109 -313q-4 14 2 26q49 195 192 449q102 184 242 364q-143 20 -228 9v-5l-8 2q-16 6 -8 19q0 8 10 8q104 37 271 12q2 2 8 11.5t10 13.5q174 213 455 436q-84 -31 -168 -31q-113 0 -269 62q-16 4 -24 4q-61 0 -131 -82l-10 -6q-25 -18 -41 -4q-20 20 4 39l28 28 q43 37 131 132q10 10 21 8q10 0 14 -11q2 -8 -2 -16l-30 -43q31 6 63 -6q127 -47 254 -47q129 0 244 51q14 10 35 10q29 0 28 -8q8 -20 -14 -37l-51 -39q-170 -125 -275 -213q-145 -125 -229 -256l-2 -4q70 -10 125 -10q10 0 38.5 6t41.5 6q20 6 26 -14q0 -29 -26 -33 q-53 -20 -91 -14q-57 0 -149 14q-328 -430 -426 -809q-12 -45 -41 -39q-14 1 -20 17z" />
<glyph unicode="8" horiz-adv-x="589" d="M-14 27q0 70 37 118q139 193 387 414q-53 137 -48 221q9 135 99 264q84 117 188 117q33 0 60 -14q72 -41 71 -166q2 -10 -4 -25q0 -23 -18 -28q-12 -10 -31 8q-12 88 -20 106q-23 59 -84 56q-82 -12 -150 -129q-66 -113 -65 -221q0 -47 41 -154l83 76l404 362 q82 80 307 268q23 12 29 -2q4 -8 -6 -24q-53 -41 -144 -129l-79.5 -77t-45 -42t-19.5 -17.5l-13 -13.5l-404 -362l-94 -86q45 -111 45 -185q0 -55 -27 -118q-49 -115 -157 -205q-109 -88 -236 -107q-59 -8 -92 37q-14 21 -14 58zM43 39q0 -55 57 -55q51 0 127 53 q160 113 205 235q37 101 12 185q-10 41 -16 53q-72 -66 -147 -143l-117 -123q-55 -63 -96 -123q-25 -37 -25 -82z" />
<glyph unicode="9" horiz-adv-x="552" d="M82 -303q0 16 12 33l592 1005q-80 -72 -211 -151q-74 -43 -164 -43q-63 0 -95 23.5t-30 68.5q6 201 361 401q137 78 248 78q33 0 63 -10q10 0 10 -12q0 -29 -26 -21q-43 18 -127 -10q-139 -47 -230 -111q-94 -66 -190 -180q-43 -49 -43 -123q6 -35 47 -47q83 -25 166 25 q270 164 409 444l9 12q6 10 16 11q20 0 21 -15q0 -6 -5 -14l-12 -25l-414 -739q-252 -444 -364 -612q-12 -12 -23 -13q-20 0 -20 25z" />
<glyph unicode=":" horiz-adv-x="290" d="M125 18q-6 25 16 58q20 31 52 39q10 2 15 -7.5t5 -31.5q0 -16 -25 -47q-23 -29 -34 -29q-29 0 -29 18zM236 285q-6 25 16 57q20 31 51 39q10 2 15.5 -7t5.5 -32q0 -16 -25 -47q-23 -29 -35 -29q-28 1 -28 19z" />
<glyph unicode=";" horiz-adv-x="290" d="M35 -150q43 51 76 115q29 57 26 68q-12 63 56 82q10 2 15 -7.5t5 -31.5q0 -20 -55 -94q-61 -86 -123 -146q-8 6 0 14zM225 285q-6 27 15 57q20 29 53 39q10 2 15 -7t5 -32q0 -16 -24 -47q-23 -29 -37 -29q-27 1 -27 19z" />
<glyph unicode="&#x3c;" horiz-adv-x="839" d="M166 373q0 20 27 35l194 106q166 78 561 287q2 2 10 2q18 0 19 -19q0 -6 -8 -12l-551 -307l-148 -82q6 0 18.5 -3l20.5 -5q16 -4 58.5 -16.5t103.5 -28.5l285 -60q8 -2 22 -20q0 -14 -14 -23q-6 -6 -23 -6l-282 62q-58 15 -178 43q-10 0 -91 22q-24 7 -24 25z" />
<glyph unicode="=" d="M141 377q0 25 25 26q16 0 71.5 1.5t94.5 1.5q47 2 145 4q23 0 81 1t93 1q39 0 39 -27q0 -25 -26 -31h-187q-35 0 -83 -1t-62 -1h-84q-27 0 -53 1l-27 1q-27 0 -27 23zM201 539q0 20 26 24q16 0 70.5 2t93.5 2q47 2 146 4h174q41 0 41 -24.5t-29 -30.5q-20 0 -81.5 -1 t-102.5 -1h-148h-84h-80q-26 0 -26 25z" />
<glyph unicode="&#x3e;" horiz-adv-x="839" d="M109 162q0 8 8 14l549 305l147 84q-8 2 -14 3t-10.5 2t-7.5 2t-4 1h-1l-164 43l-284 62q-8 2 -23 20q0 14 14 23q6 6 23 6l283 -61q58 -15 178 -43q12 0 90 -23q27 -6 27 -25q0 -20 -29 -36l-195 -105q-166 -78 -561 -287q-2 -2 -10 -2q-16 1 -16 17z" />
<glyph unicode="?" horiz-adv-x="827" d="M322 -33q0 20 20 49q23 31 41 31q20 -8 20 -45q0 -27 -18 -49q-18 -20 -43 -21q-20 0 -20 35zM375 158q59 252 237 417l234 201q119 119 119 234q0 70 -113 65q-78 0 -184 -53l-47 -29q-49 -76 -125 -164l-13 -16q-12 -16 -30 -6q-16 10 -2 35l14 30q39 84 135 148 q4 6 70 113q10 16 16 16q20 0 12 -14q-2 0 -16 -31q-2 -4 -8 -18.5t-17 -34.5l82 41q49 23 95 24q76 6 122 -12q57 -25 58 -94q0 -98 -119 -226q-25 -27 -176 -163q-109 -96 -162 -172q-45 -59 -78 -160q-8 -31 -18 -63.5l-21 -69.5q-2 -25 -39 -27q-12 0 -20 10 q-8 13 -6 19z" />
<glyph unicode="@" horiz-adv-x="1437" d="M72 328q0 205 172 420q133 166 307 266q324 182 602 182q113 0 197 -33q76 -31 125 -104q47 -72 47 -162q0 -45 -13 -84q-59 -193 -200 -321q-158 -145 -340 -146q-55 0 -70 43q-12 39 -4 84q-164 -131 -295 -156q-53 -12 -72 -8q-49 10 -47 62q10 100 205 223 q174 109 365 139q33 6 32 -12q0 -4 -4 -4q-174 -31 -317 -107q-158 -86 -221 -211q-2 -4 -2 -12q0 -20 30 -20q25 0 68 12q162 49 289 168l80 92q14 12 22 10q14 -2 14 -26l-8 -13q-27 -27 -76 -82q-23 -29 -18 -84q0 -20 16 -32q41 -33 105 -17q170 45 285 185 q111 135 120 319q4 72 -45 131q-43 55 -110 84q-89 37 -197 37q-72 0 -141 -14q-285 -57 -496 -213q-229 -164 -327 -418q-31 -76 -31 -158q0 -127 76 -231q109 -152 364 -152q420 0 660 213q18 14 28 4q12 -16 0 -28q-117 -117 -303 -183q-184 -68 -381 -67q-117 0 -217 24 q-131 31 -205 152q-69 109 -69 248z" />
<glyph unicode="A" horiz-adv-x="1069" d="M59 59q47 324 486 686q143 121 436 267q131 63 213 63q31 0 31 -16q0 -10 -4 -16.5t-13 -4.5q-8 1 -16 1q-68 0 -199 -62q-205 -98 -375 -229q-195 -150 -301 -279q-125 -156 -180 -356q-4 -16 -4 -21q0 -29 23 -47q18 -16 39 -16q80 4 141 39q46 25 141 98 q186 143 268 233l293 316q170 184 271 327q14 27 28 19q13 -9 13 -17q0 -4 -2 -8l-367 -579q-53 -90 -78 -172q-39 -137 -39 -160q0 -55 31 -82q10 -10 31 -10q90 0 227 114q2 0 3 1q3 -1 3 2l2 -2q2 -1 4 -1q12 -6 2 -16q-168 -162 -274 -162q-63 0 -88 58q-8 25 -8 61 q0 29 30 176q98 213 187 346q-35 -43 -107 -110q-82 -78 -127 -129q-100 -111 -276 -242l-170 -129q-87 -56 -177 -56q-9 0 -18 1q-37 0 -61 37q-20 29 -20 61q0 7 1 16z" />
<glyph unicode="B" horiz-adv-x="815" d="M27 109q0 39 12 77q31 106 201 162q125 209 221 342l47 62l227 327q-244 -145 -479 -145q-47 0 -72 2q-8 0 -8 10t8 10h25q286 0 584 209l14 11l2 2q5 2 8.5 1.5t7.5 -1.5q8 -6 9 -17l-9 -16q-27 -41 -114 -160q98 76 192 94q23 2 45 -10q20 -12 21 -35q0 -29 -21 -61 q-119 -137 -284 -242q205 0 229 -137q0 -8 1 -22.5t1 -20.5q0 -137 -67.5 -274.5t-174.5 -223.5q-186 -150 -381 -149q-117 0 -194 63q-51 52 -51 142zM90 123l2 -19l111 183q-119 -62 -113 -164zM100 47l17 -18q74 -59 180 -60q168 0 326 131q106 88 168 217q54 114 54 227 q0 17 -1 34q-6 106 -164 106q-45 0 -111 -14l-59 -19l-12 -4q-6 0 -13 2l-180 -303q-111 -182 -192 -287zM522 711q2 0 10.5 2l16.5 4l16 4q95 49 197 129l78 59q37 31 57 72q2 6 2 11q0 7 -4 16q-5 11 -16 10h-5q-106 -20 -196 -109q-74 -74 -150 -190z" />
<glyph unicode="C" horiz-adv-x="854" d="M59 162q0 88 35 192q125 403 561 701q100 66 187 65q39 0 67 -16q117 94 269 135l1 1q2 0 7 -5l-4 -8q-86 -39 -234 -131q-4 -4 -8 -6q-6 -4 -6 -5q37 -37 37 -94q0 -66 -51 -117q-70 -70 -127 -69q-23 0 -31 22q-8 18 -2 39q18 117 117 209q-20 10 -46 10 q-70 0 -143 -49q-250 -166 -409 -415q-162 -252 -162 -445q0 -84 41 -129q67 -73 162 -73q11 0 22 1q227 18 449 314q10 14 22 2q8 -8 0 -23q-84 -123 -190 -217q-143 -125 -281 -135q-18 -1 -35 -1q-109 0 -172 54q-76 68 -76 193zM815 899q-1 -5 -1 -9q0 -6 3 -11 q6 -8 17 -9q51 14 81 66q14 29 15 49q0 33 -29 72q-57 -56 -86 -158z" />
<glyph unicode="D" horiz-adv-x="1368" d="M8 -45q0 43 35 82q76 82 223 82q59 0 152 -17q55 -10 106 -26q121 102 213 256q35 57 156 289l76 159q-74 -25 -138 -24q-51 0 -100 16q-90 31 -90 94q2 111 143 187q119 66 267 71q11 0 21 1q127 0 228 -70q94 -66 144 -178q33 -76 33 -162q0 -237 -160 -467 q-80 -115 -205 -197q-150 -96 -289 -96q-53 0 -92 10l-180 66q-160 -137 -344 -168q-42 -7 -75 -7q-60 0 -89 23q-35 27 -35 76zM72 -27q0 -33 32 -47q27 -12 72 -12q109 0 213 63q55 33 105 72q-100 33 -201 33q-55 0 -103 -8q-82 -12 -106 -58q-12 -21 -12 -43zM578 55 q89 -31 116 -37q76 -20 127 -20q98 0 183 45q197 104 317 311q104 184 104 359q0 90 -30 149q-117 216 -327 217q-17 0 -34 -2q-111 -10 -207 -55q-133 -61 -133 -148q0 -47 68 -65q37 -10 78 -10q76 0 149 28l66 148q2 10 16 10t14 -16q0 -4 -2 -8q-6 -16 -19 -44l-30 -67 q49 29 66 63q6 14 24 15q16 0 13 -21q-2 -43 -58 -76q-23 -14 -67 -34q-95 -224 -148 -326q-82 -158 -211 -330q-40 -51 -75 -86z" />
<glyph unicode="E" horiz-adv-x="909" d="M72 121q0 207 233 383q135 102 201 141q-18 39 -19 86q0 102 68 189q98 129 274 202q59 25 120 25q17 0 34 -2q96 98 244 135q8 2 14 2q15 0 15 -12q0 -10 -11 -13q-117 -12 -223 -120q84 -29 90 -107q0 -29 -22 -49q-47 -33 -82 -33q-16 0 -39 6q-48 17 -48 64 q0 15 5 33q4 10 22 47h-16q-53 0 -86 -17q-311 -154 -311 -338q0 -31 14 -73q102 53 199 63q12 1 22 1q67 0 96 -48q12 -14 8 -43q-6 -23 -20 -37q-63 -68 -168 -67q-94 0 -154 65q-193 -109 -327 -278q-66 -88 -66 -185q0 -80 47 -143q37 -39 140 -39q18 0 43 4 q166 43 303 141q66 45 243 201q6 10 21 2q6 -12 0 -22q-356 -381 -655 -381q-43 0 -93 18q-53 20 -63 35q-53 72 -53 164zM573 625q46 -43 111 -43q61 0 109 39q12 12 12 28q-4 18 -17 23q-27 7 -53 7q-42 0 -84 -17q-29 -10 -78 -37zM965 1034q0 -35 39 -45q4 -1 9 -1 q25 0 50 26q7 11 7 20q0 8 -5 17q-20 33 -80 43v-2q-20 -27 -20 -58z" />
<glyph unicode="F" horiz-adv-x="729" d="M6 -84q113 354 377 518q78 49 168 92q18 25 63 99q12 23 113 202q72 127 131 199q-86 -8 -176 -8q-139 0 -176 -4q-188 -14 -326 -123l-16 -4q-6 6 -2 12q86 100 272 150q70 18 184 22l92.5 4t90.5 2q74 6 117 13q57 51 129 84q33 14 65 14q61 0 62 -39q0 -31 -37 -47 q-86 -41 -213 -66q-10 -2 -17 -2q-80 -92 -159 -239l-130 -244q82 35 281 82l12 2q12 2 21 0q6 -2 6 -10q0 -10 -2 -17l-16 -22l-33 -51q-27 -45 -29 -78v-29q0 -8 -12 -20q-23 -6 -27 8q-2 8 -2 30q0 58 37 136q-123 -25 -276 -93l-31 -40l-221 -295q-139 -174 -271 -263 q-10 -8 -20 -8q-23 0 -29 11q-3 6 -3 11t3 11zM96 -8q55 39 80 67q121 133 174 197q82 96 154 201l-101 -58q-203 -122 -307 -407zM973 1098q45 8 75.5 16t44 15.5t11.5 15.5q-6 2 -13 1q-14 0 -36 -9q-37 -14 -82 -39z" />
<glyph unicode="G" horiz-adv-x="1159" d="M-172 -43q0 10 8 16q184 88 377 207q-2 18 -2 56q0 125 57 296l23 48q14 27 35 16q10 0 14 -14l10 -76q18 -121 74 -189l147 99q174 115 258 176q154 111 238 192q-41 53 -41 127q4 88 64 166q51 68 141 117q27 14 50 14q7 0 13 -2q58 -12 58 -72v-12q-6 -90 -97 -192 l-127 -137q47 -43 109 -43q37 0 74 18q31 49 55 49q16 0 26.5 -8t10.5 -21q-4 -47 -70 -73q-127 -227 -221 -365q-135 -187 -295 -307q-43 -31 -127 -63q-88 -33 -164 -37q-17 -1 -32 -1q-151 0 -218 81q-39 49 -57 118q-203 -131 -366 -198l-5 -1l-4 -1q-16 0 -16 16z M268 215l111 74q-66 78 -82 192q-33 -102 -33 -199q0 -34 4 -67zM274 178q6 -43 15 -59q22 -58 104 -92q61 -26 130 -26q14 0 28 1q49 6 135 33q78 27 107 49q166 125 282 287q63 86 201 336h-31q-90 0 -153 53q-219 -207 -496 -373l-147 -94q49 -37 118 -37q66 0 189 49 q12 6 20 -8q6 -12 -8 -23q-111 -68 -213 -67q-92 0 -152 57q-10 -6 -25.5 -17l-37.5 -28q-25 -16 -43.5 -26.5t-22.5 -14.5zM1104 821q131 135 178 252q8 18 8 32q0 24 -26 32h-6q-19 0 -50 -19q-131 -83 -131 -203q0 -54 27 -94z" />
<glyph unicode="H" horiz-adv-x="999" d="M35 29q0 59 31 133q0 16 18 16q20 0 14 -20q-5 -44 -5 -79q0 -41 7 -63q12 -43 80 -43q16 0 35 7q186 55 356 305l131 192h-4q-57 25 -57 80q0 29 29 61q27 29 80 29q23 0 47 -14q61 111 104 241q18 59 19 107q0 76 -48 133q-45 51 -129 51q-82 0 -157 -57q-10 -6 -15 -2 q-12 6 0 18q74 76 191 76q125 0 174 -76q37 -59 37 -120q0 -41 -17 -101q-46 -151 -129 -301q12 -22 19 -43q4 -14 8 -43q78 10 160 45q86 37 98 41q138 206 215 301q135 166 277 268q23 10 30 5q2 -2 3 -6q0 -9 -19 -25q-203 -168 -424 -514q4 0 8 3t11.5 6t13.5 5 q10 2 22 -4q2 -2 -6 -20q-8 -4 -29.5 -16.5t-56.5 -29.5l-92 -135q-193 -287 -289 -501q-17 -39 -48 -40q-2 0 -5 1q-29 2 -16 34q12 29 22 48q87 266 87 443q0 17 -1 34q-11 -1 -22 -1q-26 0 -48 5q-197 -332 -403 -490q-98 -74 -174 -73q-133 0 -133 129zM709 551 q8 -23 22 -27q25 37 43 72q-12 8 -18 8q-29 0 -41 -18q-8 -12 -8 -23q0 -6 2 -12zM776 512h2q4 0 14.5 -1t20.5 -1v27q-4 18 -8 24q-6 -12 -21 -35q-2 -2 -4 -6zM831 174q55 92 187 289l53 74q-129 -57 -213 -72q1 -24 1 -48q0 -133 -28 -243z" />
<glyph unicode="I" horiz-adv-x="864" d="M8 33q0 46 31 92q29 43 80 61q53 20 117 29q20 6 26 -12q0 -18 -20 -25l-60 -16q-47 -14 -73 -41q-31 -35 -31 -66q0 -23 18 -39q25 -14 53 -14q21 0 41 8q244 92 517 365q20 88 53 176q160 424 426 633q10 8 22 8q21 -2 21 -18q0 -9 -6 -21q-53 -176 -185 -397 q-123 -205 -274 -381q-43 -185 -43 -413q0 -50 2 -101q0 -31 -25 -31q-16 0 -26 20q-6 28 -6 95.5t6 175.5q4 92 20 184q-289 -272 -522 -348q-23 -8 -57 -8q-74 0 -93 33q-12 22 -12 51zM791 469q291 369 362 637q-245 -266 -362 -637z" />
<glyph unicode="J" horiz-adv-x="655" d="M-299 -842q0 49 23 99q156 328 401 526q72 59 291 188q2 4 20 47q143 336 195 527q31 114 31 203q0 78 -21 139q-37 117 -143 149q-33 4 -49 4q-121 0 -269 -86q-119 -70 -162 -129q-27 -39 -26 -73q0 -27 18 -33q34 -10 69 -10l103 22h8q2 -2 -2 -8q-66 -49 -145 -49 q-31 0 -55 6q-53 13 -54 51q0 8 3 17q49 215 419 339q43 15 89 15l53 -4q207 -37 207 -310q0 -322 -211 -774q45 27 149 84q76 41 129 88h6h6q7 -4 8 -7q0 -4 -6 -9q-10 -10 -79 -72q-68 -47 -246 -149l-156 -340q-92 -195 -194 -322q-131 -156 -306 -235q-20 -4 -28 -4 q-76 -1 -76 110zM-223 -860q7 -15 21 -15q3 0 5 1q182 74 318 280q133 203 266 500q-195 -113 -240 -150q-117 -94 -208 -221q-49 -74 -154 -258q-22 -39 -22 -77q0 -30 14 -60z" />
<glyph unicode="K" horiz-adv-x="714" d="M-80 51q0 53 21 103q2 14 22 20q25 0 17 -20q-2 -20 -2 -38q0 -93 55 -106q6 -1 13 -1q51 0 124 83q143 162 299 449q-62 6 -62 47q0 31 25 55q21 21 51 21q21 0 47 -11l86 156q115 215 132 303q0 8 -3 8h-12q-27 -6 -166 -71q-2 0 -3 -1l-3 -1q-16 0 -16 16q0 8 8 16 q74 49 199 103q23 10 41 4q27 -6 22 -37q-12 -82 -153 -352l-95 -172q2 -2 5 -7.5t6 -7.5q68 27 153 90l152 121q203 160 399 477q8 14 23 15q12 0 12 -10v-7q-55 -113 -164 -254q-94 -123 -176 -198q-225 -207 -383 -273q9 -36 9 -87q0 -15 -1 -31q-10 -182 -27 -295 q-28 -175 -36 -271q-16 -168 -17 -200q0 -145 74 -213q14 -10 6 -21q-4 -4 -10 -4q-4 0 -8 2q-115 74 -115 265v20q2 94 53 405q39 236 39 336q0 43 -6 78q-20 -6 -31 -8q-150 -260 -178 -303q-106 -166 -223 -267q-49 -43 -113 -43q-90 0 -90 117zM461 600q0 -10 35 -10 l2 4q2 4 7 11t9 16q-15 6 -26 5q-25 0 -27 -26z" />
<glyph unicode="L" horiz-adv-x="770" d="M45 59q0 82 76 136q74 51 166 51q98 0 172 -56q59 61 96 117q78 111 188 289q-84 -25 -143 -25q-102 0 -178 41q-92 46 -105 123q-2 20 17 21q16 0 18 -15q18 -111 250 -110q86 0 186 37q43 68 86 149q47 94 136 176q100 98 186 98.5t86 -75.5q0 -52 -43 -105 q-23 -29 -76 -77q-133 -127 -350 -216q-61 -104 -225 -337q-41 -59 -96 -119l108 -123q78 -88 209 -217q77 -65 117 -80q57 -25 174 -25q68 0 119 31q59 37 59 94q0 41 -37 41q-66 0 -76 -55q0 -4 -3 -12.5t-3 -12.5q-4 -16 -18 -12q-14 6 -13 23l5 20q14 111 108 111 q29 0 51 -33q20 -29 21 -64q0 -80 -57.5 -139t-137.5 -59q-123 0 -198 37q-39 20 -138 102q-59 53 -104 107q-59 68 -107 110q-47 51 -118 115q-25 -25 -111 -98q-119 -102 -176 -102.5t-88 38.5q-33 43 -33 100zM82 59q0 -78 88 -77q51 0 145 73q49 41 103 92 q-66 41 -148 41q-188 0 -188 -129zM856 694q174 74 281 168l61 53q31 35 31 78q0 37 -47 37q-72 0 -158 -82q-63 -63 -111 -151q-18 -35 -57 -103z" />
<glyph unicode="M" horiz-adv-x="1062" d="M-106 1038q0 61 71 152q92 115 230 196q126 74 258 74q127 0 194 -74q20 -29 21 -81q0 -98 -121 -390q-8 -20 -23 -49q147 147 312 185q19 4 32 4q29 0 37 -21q6 -18 6 -43q0 -37 -24 -104q-31 -82 -172 -395q141 166 157 182q102 102 199 123q4 0 8 1t6 1q41 0 52 -56 q3 -18 3 -35t-3 -32q-16 -78 -97 -244q-76 -160 -100 -244q-10 -33 -10 -106q0 -162 59 -215q31 -18 21 -37q-6 -14 -23 -16q-4 0 -24 4q-76 39 -76 213q0 100 20 174q25 88 144 370q29 70 28 119q0 29 -16 33q-3 1 -7 1q-38 0 -118 -58q-88 -63 -145 -138 q-109 -137 -201 -313l-111 -215q-18 -41 -45 -41q-2 0 -3 1l-3 1q-18 12 -6 45q12 25 14 31l68 127q156 307 307 692q23 61 23 90q0 18 -25 19q-55 0 -149 -54q-104 -59 -181 -145q-70 -156 -145 -299l-238 -491q-4 -12 -22 -23q-4 -4 -25 -4q-16 0 -22 6q-18 12 2 33 q166 292 448 872q137 281 137 416q0 39 -16 66q-31 49 -156 55q-13 1 -26 1q-197 0 -371 -177q-80 -80 -80 -154q0 -18 6 -37q23 -41 80 -41q29 0 60 13q14 0 16 -13q0 -10 -10 -16q-76 -29 -125 -29q-66 0 -90 45q-10 18 -10 45z" />
<glyph unicode="N" horiz-adv-x="796" d="M43 926q0 76 72 137q152 135 309 135q100 0 154 -65q29 -47 28 -113q0 -154 -196 -522q166 213 475 569q25 31 67 66q26 19 49 18q8 0 17 -2q14 -4 22 -25q14 -31 14 -79q0 -44 -12 -101q-39 -162 -151 -409q-129 -283 -176 -410q-39 -121 -39 -209q0 -147 96 -209 q10 -6 4 -29q-11 -17 -22 -17q-5 0 -11 3q-43 0 -86 86q-33 66 -32 158q0 52 12 110q35 160 174 459t174 461q10 42 10 71q0 43 -22 56q-12 4 -25 -8q-74 -66 -176 -183q-147 -170 -360 -442q-2 -2 -18.5 -23.5t-41.5 -58.5q-72 -104 -106 -160q-80 -127 -113 -194 q-14 -33 -38.5 -31t-14.5 29l8 24l340 619q131 248 131 364q0 61 -33 107q-51 41 -114 41q-113 0 -246 -123q-45 -43 -45 -86q0 -29 24.5 -47.5t57.5 -18.5q20 0 28 5l38 19t48 26q12 6 19 -9q2 -8 -6 -14q-31 -31 -94 -61q-37 -18 -78 -19q-51 0 -82 29q-33 31 -33 76z" />
<glyph unicode="O" horiz-adv-x="649" d="M49 109q0 82 49 192q182 414 502 655q-4 12 -4 19q0 72 76 129q88 64 170 63h8q102 -4 139 -61q18 -27 29 -72q51 39 104 94q8 8 17 9q10 -2 10 -10q0 -3 -2 -7q-18 -37 -68 -73l-57 -46q1 -16 1 -32q0 -89 -42 -193q-98 -236 -223 -407q-188 -262 -488 -385 q-57 -25 -108 -25q-70 0 -90 47q-23 52 -23 103zM117 117q0 -57 24.5 -75.5t61.5 -18.5q39 0 90 22q262 113 426 348q197 283 246 545q0 2 1 9t1 14q-90 -66 -174 -72q-27 -2 -51 -3q-92 0 -126 40q-104 -84 -233 -244q-100 -121 -197 -309q-69 -133 -69 -256zM666 1001 q92 63 217 115q-14 4 -47 8q-9 1 -18 1q-49 0 -91 -29q-57 -42 -61 -95zM674 971q25 -43 119 -43q52 0 98 24q18 10 74 45q-2 43 -17 74q-8 20 -37 35q-114 -47 -237 -135z" />
<glyph unicode="P" horiz-adv-x="872" d="M8 -27q-15 26 -15 64.5t15 89.5q4 16 19 8q6 -2 10 -16q0 -9 -1 -18q0 -58 15 -70q4 -4 25 12q74 66 127 150l135 225q-20 35 -20 80q0 19 4 41q6 47 47 88q37 37 81 37h7t8 -1t6 -1l145 274l113 211q-92 -16 -223 -82q-121 -61 -168 -127q-23 -32 -23 -50q0 -6 2 -9 q0 -6 -8 -11q-6 -2 -8 2q-4 11 -4 24q0 24 16 56q37 72 164 142q172 94 291 116q63 94 102 109q4 2 8 1q10 0 13 -9q2 -12 -12 -21q-33 -23 -68 -76q11 1 22 1q43 0 80 -11q106 -31 146 -147q16 -53 16 -105q0 -102 -53 -198q-78 -139 -176 -244q-166 -172 -350 -172 q-82 0 -134 51l-94 -160q-59 -100 -90 -139q-51 -76 -106 -119q-18 -12 -37 -12q-15 0 -27 16zM365 526q0 -23 8 -49l78 144q-35 0 -60 -31q-26 -33 -26 -64zM395 440q37 -43 127 -49h11q108 0 245 117q147 127 219 287q29 63 29 134.5t-33 125.5q-45 72 -116 90 q-31 9 -72 9q-12 0 -25 -1q0 -2 -3 -5t-6 -9t-5 -13q-106 -227 -256 -485q35 -23 53 -74q6 -12 -6 -22q-12 -8 -25 10q-4 6 -20 24.5l-23 26.5z" />
<glyph unicode="Q" horiz-adv-x="808" d="M39 -6q-1 5 -1 11q0 27 25 65q70 84 183 84q83 0 153 -62q168 98 340 293q80 88 146 215q61 125 86 219q25 104 24 154q0 78 -39 119q-39 39 -102 38q-57 0 -111 -22q-213 -82 -325 -207q-137 -152 -158 -280q-6 -43 -6 -76q0 -111 80 -111q49 0 108 76l15 33q6 49 0 61 q0 2 -1 5l-1 3q0 16 14 16.5t16 -12.5q8 -23 9 -47q0 -13 -2 -26q-6 -39 -21 -54q-70 -94 -141 -94q-131 0 -131 172q0 168 176 363q127 139 360 223q53 20 115 21q133 0 164 -93q18 -52 18 -116q0 -150 -92 -347q-74 -156 -168 -258q-168 -184 -348 -294q27 -31 45 -80 q8 -28 8 -55.5t-8 -55.5q80 61 227 164q94 63 170 125q10 8 21 2q12 -8 0 -21q-125 -106 -166 -129q-25 -15 -264 -209q-31 -117 -103 -223q-76 -109 -176 -168q-23 -8 -37 -7q-9 0 -14 3q-12 6 -12 25q0 23 14 53q125 205 277 340q13 52 12 89q0 22 -4 38q-14 47 -37 82 q-168 -94 -266 -94q-60 0 -72 49zM100 23q0 -10 13 -23q14 -14 26 -10q104 20 215 78q-27 31 -61 38q-25 8 -60 9q-121 0 -133 -92zM172 -535q74 51 131 125q35 45 80 162q-90 -94 -117 -129q-69 -88 -94 -158z" />
<glyph unicode="R" horiz-adv-x="856" d="M51 51q14 68 23 133q0 10 14 15q16 0 16 -11q0 -2 -8 -59q-4 -49 -4 -53q0 -35 17 -45q16 0 18 2q57 35 149 174l152 244q31 49 43 71q-68 -14 -100 -14q-23 0 -37 8q-16 10 -15 27q4 29 41 53q66 45 140 45q23 0 32 -2l58 115q70 137 153 354q-143 -35 -307 -141 q-6 -3 -12 -13q2 -16 102 -20q14 0 14.5 -14.5t-16.5 -14.5q-32 -4 -58 -4q-61 0 -95 23q-14 10 -13 26q2 14 33 35q229 141 371 172l8 21q0 16 23 16q12 0 14 -4q0 -8 -2 -14l-4 -13q68 12 127 13q193 0 192 -129q0 -94 -137 -232q-53 -53 -197 -141q-125 -74 -174 -99 q25 -50 25 -98q0 -123 -82 -475q-43 -184 -43 -227q0 -78 43 -115q4 -4 25 -4q45 2 90 76q6 18 22 12q10 -12 6 -25q-12 -47 -55 -84q-45 -39 -92 -38q-27 0 -39 12q-63 49 -63 168q0 41 4 61q12 57 79 316q45 172 46 303q0 66 -15 98l-16 -8q-12 -3 -19 -6 q-98 -178 -252 -404q-80 -117 -163 -176q-9 -6 -19 -6q-18 0 -28 16q-15 35 -15 69v11zM383 563q1 -7 17 -7q29 0 100 22q2 4 7 12t7 12q-18 6 -33 4q-96 -16 -98 -43zM573 625q2 -2 7.5 -6.5t9.5 -8.5q76 35 143 76q314 193 314 350q0 97 -127 97q-53 0 -132 -15h-2 q-86 -255 -213 -493z" />
<glyph unicode="S" horiz-adv-x="790" d="M-72 -29q8 6 31 24.5t37 31.5q63 51 67 53q-4 20 -3 38q0 45 20 83q41 80 143 104q42 9 93 9q37 0 77 -5l86 58q51 37 144 118l147 129q63 211 115 301q88 154 254 224q8 4 22 6q8 3 15 3q16 0 20 -15l4 -13q0 -2 1 -8t1 -8q0 -86 -198 -322l-181 -176q-15 -49 -30 -129 l-25 -184q-18 -121 -63 -187q-117 -174 -355 -192q-18 -1 -34 -1q-94 0 -152 42q-45 33 -84 88l-123 -88q-12 -8 -29 0q-7 4 -7 7.5t7 8.5zM117 117l223 149q-72 0 -80 -2q-133 -24 -143 -147zM123 72q25 -59 74 -95q45 -31 116 -30q76 0 131 22q123 45 193 140 q55 74 78 178l37 182v-1l8 89l-23 -20q-39 -31 -80 -70q-84 -76 -211 -170q2 0 10.5 -5t14.5 -7q22 -15 18 -25q-8 -23 -40 -10q-8 2 -27 5l-31 5zM850 680l119 117q52 61 110 153q57 90 58 119q0 6 -2 6q-63 -6 -134 -90q-92 -113 -143 -278z" />
<glyph unicode="T" horiz-adv-x="702" d="M6 10q0 33 14 101q41 172 156 338l19 18q12 10 30 4q4 0 17 -22q4 -14 10 -30l6 -16q12 -27 29 -32q12 -6 26 -6q39 0 93 41q14 12 20 -5q6 -10 -4 -18q-78 -68 -137 -68q-18 0 -33 9q-51 29 -66 84q-72 -100 -102 -213q-20 -76 -21 -115q0 -41 17 -80q14 -14 37 -14 q65 0 159 98q92 94 181 256l151 272q88 145 97 156q61 88 116 133q63 53 109 80q-80 0 -148 18q-25 8 -47 16.5t-45 14.5q-61 16 -102 17q-70 0 -148 -46q-43 -27 -65 -90q-8 -23 10 -28q6 -2 21 -2q29 0 65 24l74 51q10 8 18 5q8 -8 -8 -25q-59 -55 -133 -96 q-33 -16 -55 -17q-47 0 -48 49q0 16 3 25q18 80 114 141q84 49 168 49q43 0 201 -40q68 -18 145 -19q169 0 357 86h5q19 0 19 -18q-6 -20 -22 -27q-145 -66 -275 -84q-4 -2 -10 -2q-88 -25 -186 -115q-104 -96 -205 -276l-168 -309q-213 -346 -383 -367q-6 -1 -12 -1 q-64 0 -64 95z" />
<glyph unicode="U" horiz-adv-x="784" d="M66 51q0 166 217 508l98 148q14 25 53 84q133 193 199 358q12 27 2 49q-6 13 -32 13q-16 0 -40 -5q-39 -8 -69 -30q-109 -78 -121 -166q-6 -12 -15 -21q-12 -6 -16 8q3 104 147 209q76 53 132 54q63 0 63 -62q0 -45 -94 -221q-51 -96 -170 -275q-129 -193 -172 -274 q-86 -156 -107 -278q-6 -43 -6 -68q0 -76 51 -84q4 -1 8 -1q35 0 89 46q230 194 467 528l378 580l16 21q15 22 25 38q25 41 41 29q5 -2 6 -9q0 -3 -2 -9q0 -12 -10 -23l-483 -790q-45 -84 -82 -211q-35 -123 -35 -207q0 -29 2 -41q0 -41 -27 -41h-4q-14 0 -20 20 q-4 14 -4 45q0 238 184 539q-217 -307 -430 -500q-84 -76 -168 -75q-71 -1 -71 114z" />
<glyph unicode="V" horiz-adv-x="538" d="M-266 903q-4 10 -5 24q0 16 7 36q12 53 86 108q172 127 342 127q137 0 176 -113q15 -45 15 -115q0 -53 -9 -118q-25 -184 -119 -463q-63 -193 -92 -262l248 395q68 109 279 412q158 207 317 244q9 2 17 -4t8 -17q0 -5 -9 -14q-10 -10 -22 -15q-164 -55 -279 -208 q-182 -250 -270 -398l-358 -588q-8 -22 -23 -22q-6 0 -12 4q-14 6 -11 21l154 454l70 227q39 129 53 228q11 74 11 128t-11 89q-31 98 -135 100h-7q-72 0 -192 -55q-158 -72 -182 -164l-2 -16q12 -35 59 -35q14 0 27 6q10 6 18 -2q4 -10 -12 -16q-35 -14 -66 -15 q-55 0 -71 37z" />
<glyph unicode="W" horiz-adv-x="1105" d="M-23 844q0 37 21 71q100 166 272 275q176 111 342 110q65 0 123 -18q84 -29 84 -166q0 -190 -125 -469l-221 -440q39 55 242 291q150 174 225 305l14 22q12 22 31 13q12 -2 6 -21l-24 -78q-100 -326 -101 -618q0 -14 1 -42t1 -42q100 285 203 506q170 365 229 467 q147 254 330 409q9 7 14 8q5 0 9 -6q5 -4 5 -8q0 -7 -9 -14q-168 -156 -312 -406q-88 -154 -223 -456l-137 -308q-72 -166 -107 -307l-4 -16q-8 -21 -22 -21h-4q-23 0 -17 19q-16 137 -16 252q0 254 74 489l-273 -328q-152 -195 -241 -354l-7 -12q-6 -23 -30 -14 q-16 4 -8 24l18 41l305 635q113 233 113 446q0 115 -49 152q-45 25 -107 25q-141 0 -311 -103q-172 -102 -260 -244q-20 -29 -21 -65q0 -33 23 -55q84 -78 219 -78q182 0 385 123q0 4 8 0l-2 -9q-218 -135 -412 -135q-135 0 -221 74q-33 27 -33 76zM637 838z" />
<glyph unicode="X" horiz-adv-x="1134" d="M31 82q0 27 8 49q27 84 94 158q72 82 160 100l4 -1q4 -1 8 -1q0 -20 -8 -22q-156 -61 -217 -236q-3 -12 -3 -22q0 -38 34 -60q20 -12 55 -12q51 0 108 24q285 123 486 473q94 162 94 324q0 51 -12 88q-37 109 -123 109q-174 0 -275 -68q-12 0 -14 2q-14 8 0 21 q139 104 285 104q59 0 94 -20q106 -63 106 -226q0 -20 -4 -65q156 274 414 360q51 18 100 19q70 0 109 -39q20 -20 20 -54q0 -68 -65 -114q-6 -6 -10 -6q-8 -2 -11 2q-14 10 -2 22q35 39 35 78q0 23 -16 35q-31 23 -82 22q-96 0 -221 -88q-115 -84 -181 -184 q-72 -113 -114 -252q-45 -147 -45 -252q0 -31 8 -76q35 -166 82 -243q70 -111 205 -140q14 0 18 -10q4 -6 0 -16q-2 -8 -14 -17q-10 -7 -14 -6h-3q-163 25 -258 209q-82 158 -82 307q0 41 17 140q-117 -188 -283 -340q-213 -188 -385 -189q-102 0 -102 113z" />
<glyph unicode="Y" horiz-adv-x="669" d="M123 -465q53 115 188 272q37 45 109 111l72 166l83 188q-184 -283 -387 -309q-100 0 -100 109q0 82 49 192q25 59 109 219q76 145 102 219q66 180 66 261q0 70 -37 96q-29 22 -67 22q-25 0 -54 -10q-25 -8 -117 -55q-76 -57 -76 -86q0 -6 3 -10q2 -8 20 -13q20 0 31 8 q6 2 8 0q4 -4 4 -6q0 -8 -8 -8q-12 -10 -39 -10q-41 0 -41 29q0 72 158 163q70 41 131 41q45 0 78 -20q47 -28 47 -126v-13q-4 -82 -74 -267q-14 -41 -139 -299q-82 -172 -99 -274q-1 -8 -1 -15q0 -29 16 -53q18 -28 47 -27q6 0 12 1q190 25 350 282q27 45 148 279 q66 125 121 274q6 18 24 19q22 0 22 -16q0 -6 -3 -15q-2 -6 -9.5 -19.5t-15.5 -33.5q-6 -16 -23 -58l-348 -782q127 86 240 199l4 2q2 0 2 -1q2 -1 4 -3q6 -2 0 -8q-16 -18 -141 -134q-111 -102 -139 -120l-119 -250q-129 -266 -148 -299q-78 -150 -166 -262 q-13 -22 -28 -22q-3 0 -6 1q-13 3 -13 21q0 76 38 182.5t112 267.5zM27 -838q68 96 145 242l125 254l82 168q-49 -43 -92 -109q-53 -82 -137 -235l-74 -160q-37 -86 -49 -160z" />
<glyph unicode="Z" horiz-adv-x="628" d="M37 70q41 37 76 36h18q129 121 426 435q35 35 213 247q123 143 223 230q-61 -12 -94 -12q-55 0 -157.5 18t-135.5 18q-43 0 -151 -45q-4 -2 -13 -2q-18 0 -18 15q0 16 25 28q2 0 153 95q8 4 16 4q23 0 23 -17q0 -4 -6 -10q-2 -2 -10.5 -7t-12.5 -9h13q31 0 131 -23 q90 -20 151 -20q55 0 103 12l90 24q31 6 30 -16q0 -12 -18 -24q-141 -94 -278 -248l-250 -287l-283 -297l-104 -117q74 -23 155 -112q92 -104 123 -125q145 -94 326 -94q29 0 66.5 1t45.5 1h35q16 -4 17 -17q0 -18 -23 -20l-29 -2l-120 -11q-180 0 -344 101q-12 6 -136 123 q-86 80 -176 92q-53 -51 -86 -53q-13 -1 -23 -2q-39 0 -39 21q0 25 48 69z" />
<glyph unicode="[" horiz-adv-x="618" d="M72 -250q51 178 151 430q16 43 135 332l140 334l69 174q80 195 111 194h76q20 0 44.5 1.5t30.5 1.5q18 0 19 -17q0 -18 -14 -18q-49 -6 -148 -6q-14 0 -41 -72l-18.5 -46t-20.5 -54l-71 -179l-140 -329l-127 -332q-37 -92 -135 -395h21q8 -2 22 -2h25q2 0 10 1t12 1h51 q20 0 20.5 -20.5t-20.5 -20.5h-51q-4 0 -12 -1t-10 -1h-25h-84q-14 0 -18 4q-6 6 -2 20z" />
<glyph unicode="\" horiz-adv-x="813" d="M338 1151q0 23 24 23q16 0 23 -17l80 -223l254 -719l106 -299q0 -2 1 -5t1 -5q0 -27 -30 -27q-18 0 -25 19l-108 297l-248 720l-76 228l-1 4z" />
<glyph unicode="]" horiz-adv-x="618" d="M-141 -256q0 20 16 20q33 4 145 5q16 0 43 73l37 99q10 27 18.5 45t23 53l32.5 80l137 330l127 331q47 121 137 396h-22q-8 2 -23 2h-24h-23h-51q-20 0 -20 20.5t20 20.5h51h23h24h84q16 0 21 -5q6 -6 2 -20q-46 -157 -154 -430q-43 -113 -133 -332l-141 -332l-70 -176 q-80 -195 -106 -194q-8 0 -35 -1t-45 -1h-76q-18 0 -18 16z" />
<glyph unicode="^" horiz-adv-x="593" d="M383 1024q0 12 12 18q20 10 140 86q72 45 104 46q12 0 59 -56l54 -65q8 -8 8 -23q0 -29 -21 -29q-6 0 -14 5l-47 49q-37 41 -49 41q-37 0 -226 -88q-20 -7 -20 16z" />
<glyph unicode="_" horiz-adv-x="813" d="M-109 -289q0 20 21 21q156 2 246 2q115 -6 266 2q94 4 168 4q347 -6 319 -6q25 0 25 -27q0 -28 -25 -24q-115 0 -319 4q-66 -4 -432 -4q-206 6 -246 6q-23 -1 -23 22z" />
<glyph unicode="`" horiz-adv-x="325" d="M281 1128q0 35 43 35q12 0 18 -10q45 -88 147 -260q8 -10 0 -19q-6 -8 -16 0q-127 150 -190 246q-2 2 -2 8z" />
<glyph unicode="a" horiz-adv-x="692" d="M35 78q40 89 147 160q154 100 273 112q6 4 10 -8q0 -8 -10 -8q-166 -51 -250 -113q-25 -16 -90 -78q-34 -45 -34 -70q0 -20 21 -24q13 -2 27 -2l96 25q143 72 199 108q98 63 188 178q9 13 17 13q4 0 8 -4q12 -16 0 -29l-23.5 -24.5l-35.5 -39.5q-29 -39 -35 -53 q-49 -80 -49 -139v-19q3 -28 43 -36q10 -3 20 -3q25 0 55 15q78 51 146 119q4 4 6 2q4 -2 4 -6q0 -2 -2 -4q-70 -78 -131 -123q-45 -33 -100 -33h-21q-45 6 -61 49q-8 23 -9 45q0 39 33 98q-40 -34 -135 -98q-59 -37 -158 -82q-53 -20 -92 -20q-33 0 -49 16q-17 19 -17 41 q0 17 9 35z" />
<glyph unicode="b" horiz-adv-x="438" d="M31 88q27 72 100 164l127 154l301 411l213 291q213 289 361 410q32 25 56 25q11 0 21 -5q19 -9 19 -32q0 -8 -2 -17q-18 -106 -88 -221q-33 -51 -142 -201q-96 -127 -329 -340q-178 -141 -326 -270h8q55 -25 56 -133q0 -47 -9 -88q-6 -41 -26 -82q4 -2 10 -3t10 -1 q15 -3 43 0q53 4 105 38l20 11q6 4 12 -2q3 -6 0 -12.5t-18 -18.5q-57 -39 -115 -45q-28 -3 -49 0q-18 2 -33 10q-43 -74 -116 -123q-72 -47 -138 -51q-18 0 -43 12q-10 4 -22 23q-14 25 -14 53q0 21 8 43zM84 88q-4 -13 -4 -26q0 -25 16 -42q6 -6 19 -6q10 0 24 4 q123 31 187 129q-90 61 -90 158v17q-127 -152 -152 -234zM272 305q0 -80 68 -133q16 31 27 76q5 23 4.5 49t-4.5 53q-8 57 -25 64q-18 6 -35 -13q-35 -39 -35 -96zM412 553q129 100 241 207l181 172q92 96 151 180q109 154 123 178q57 92 70 166q0 12 -13 12q-14 0 -22 -8 q-152 -115 -346 -368q-113 -150 -207 -293z" />
<glyph unicode="c" horiz-adv-x="577" d="M20 80q8 82 109 162q184 147 301 147q14 0 43 -4q33 -6 33 -23q18 16 26 17q16 0 7 -17q-2 -2 -5 -4q-14 -12 -22 -22l-55 -68q-27 -33 -45 -32l-4 2q-6 12 28 47q22 28 25 49q4 27 -23 26q-68 0 -129 -36q-168 -96 -219 -218q-4 -12 -4 -20q0 -63 90 -70q24 -2 48 -2 q127 0 257 54q88 37 99 41q41 18 79 51q6 3 13 0q5 -2 5 -5q0 -2 -3 -5q-51 -43 -168 -103q-55 -29 -164 -53q-96 -21 -170 -21h-18q-59 4 -95 27q-40 25 -39 68q-1 6 0 12z" />
<glyph unicode="d" horiz-adv-x="507" d="M-27 1061q0 46 19 104q51 154 194 285q147 135 328 172q35 8 78 8q180 0 260 -127q35 -100 35 -215q0 -57 -10 -129l-7.5 -45t-7.5 -51q117 49 295 149q10 8 17 -4q4 -5 3 -8q0 -5 -8 -10q-178 -102 -311 -160q-72 -346 -311 -682q2 0 4 2q14 -2 80 -16q27 -4 20 -25 q-4 -27 -26 -20q-43 10 -109 14q-92 -135 -151 -194q-94 -94 -205 -125q-25 -6 -47 -7q-84 0 -103 64q-4 12 -4 39q0 52 37 98q147 178 401 178q39 0 58 -2l168 289q59 156 125 369l-166 -60q-242 -47 -348 -47q-154 0 -265 62l-30 34l-4 9q-9 16 -9 51zM39 1087l8 -49 l23 -24q117 -70 260 -70q77 0 288 37l185 66q29 131 28.5 239.5t-22.5 192.5q-74 117 -225 116q-121 0 -234 -69q-270 -167 -311 -439zM53 66q0 -29 23 -37q27 -10 49 -11q104 0 229 140q53 57 115 147q-250 0 -381 -155q-35 -41 -35 -84z" />
<glyph unicode="e" horiz-adv-x="522" d="M37 158q61 92 201 166q125 65 213 65q14 0 28 -2q2 -2 7.5 -5t7.5 -5q4 -4 0 -10l-5 -13l-12 -18q-6 -4 -33 -27q-137 -70 -344 -147q-14 -12 -28 -58q9 -65 129 -73q6 -1 13 -1q31 0 101 11q68 10 113 27q92 37 158 96q6 6 16 0q5 -2 5 -5q0 -2 -3 -5q-55 -57 -153 -109 q-37 -18 -117 -37q-84 -20 -146 -20q-172 0 -172 107q0 32 21 63zM131 201q150 57 287 125q29 23 28 24q0 3 -11 4q-7 0 -23 -2q-172 -42 -281 -151z" />
<glyph unicode="f" horiz-adv-x="368" d="M-424 -911q41 162 164 405q45 88 225 414l94 160q-41 49 -41 118q0 76 82 77q6 0 13 -1q27 -4 53 -29q102 168 256 388l219 327q8 12 61 74q12 12 22 12q9 0 15 -10q4 -4 5 -12q0 -13 -13 -33q-20 -37 -199 -293l-229 -315q-6 -14 -82 -123q-4 -8 -31 -45q37 -63 37 -137 q0 -23 -2 -43h15q43 0 77 20q41 20 152 115q4 4 10 0q6 -2 0 -8q-55 -51 -143 -123q-45 -31 -96 -31h-21q-14 -66 -43 -133q-66 -164 -158 -328q-51 -92 -147 -217q-154 -199 -262 -258q-6 -4 -12 -4q-7 0 -14.5 5.5t-7.5 16.5q0 4 1 11zM-362 -850q4 0 8 2q242 188 383 463 q82 162 125 270q31 82 39 113q-57 8 -105 45l-74 -127l-204 -358q-119 -217 -172 -396q-2 -6 -2 -9t2 -3zM63 186.5q0 -49.5 21 -84.5l70 113q-18 20 -41 21q-50 0 -50 -49.5zM104 72q35 -35 95 -45q2 18 2 39q0 66 -25 116q-27 -38 -72 -110z" />
<glyph unicode="g" d="M-702 -1759q-2 17 -2 35q0 71 28 149q138 390 363 744q287 453 669 763l93 230q-180 -137 -359 -137q-33 0 -55 14q-33 20 -33 45q0 61 82 119q178 127 545 217q6 0 10 -6q0 -12 -6 -13q-340 -92 -506 -208q-23 -14 -37 -46q-12 -29 -10 -43q6 -29 49 -28q205 8 377 211 q8 8 12 14q12 12 17 12q2 0 4 -1t4 -1q25 -18 0 -51q-2 -4 -5 -7t-11.5 -12.5l-20.5 -23.5l-86 -231q61 23 106 53q115 74 168 119q6 6 8 2q3 -1 3 -4t-5 -6q-100 -90 -151 -123q-16 -10 -158 -111q-203 -481 -475 -950l-219 -389q-139 -221 -275 -342q-39 -35 -73.5 -35 t-50.5 41zM-651 -1675q0 -37 30 -37q18 0 46 16q254 266 489 711q74 143 408 848l-205 -193q-123 -121 -205 -233q-489 -668 -561 -1094q0 -4 -1 -10t-1 -8z" />
<glyph unicode="h" horiz-adv-x="610" d="M-35 16l10 25q16 27 58 76l100 164q68 104 225 315l205 283l301 430q76 100 156 172q4 4 12 4q23 0 19 -27q-2 -16 -21 -45q-80 -123 -174 -239l-209 -267l-260 -340q-126 -169 -240 -338q125 109 248 174q22 13 39 13q12 0 23 -6q10 -4 22 -35q0 -2 1 -8.5t1 -10.5 q0 -33 -26.5 -114.5t-26.5 -120.5q0 -55 43 -78q11 -5 24 -5q17 0 40 9q70 27 157 103q6 3 13 0q8 -2 2 -11q-98 -88 -152 -125q-52 -33 -84 -33q-3 0 -6 1q-46 3 -74.5 36.5t-28.5 90.5q0 37 27 120q31 94 31 119q0 18 -12 19q-233 -135 -355 -281q-33 -49 -49 -76l-10 -10 q-10 -10 -23 -2q-8 6 -8 11q0 3 2 7z" />
<glyph unicode="i" horiz-adv-x="315" d="M27 55q0 53 47 117q35 53 86 119q8 12 53 67l10 13q10 12 21 20q20 20 37 -12q4 -10 -13 -29q-2 -2 -9 -11l-13 -17q-119 -141 -158 -226q-4 -6 -4 -24q0 -51 53 -52q43 0 66 15q88 49 155 106q6 3 13 0q6 -2 0 -8q-98 -92 -148 -123q-50 -33 -94 -33h-8q-43 2 -70 23 q-24 18 -24 55zM324 508q8 14 26 39l17 14q8 8 12 10q2 3 4.5 3t5.5 -3q8 -8 10 -32q0 -16 -12 -47q-20 -23 -35 -23h-4q-27 5 -26 27q0 5 2 12z" />
<glyph unicode="j" horiz-adv-x="380" d="M-1001 -1372q0 168 145 409q172 287 403 474q39 35 140 114l159 119q72 53 148 102l176 267l109 184q-51 -35 -273 -217q-10 -12 -16 4q0 12 4 16l264 222q57 45 76 55l20 14q23 16 35 -12q6 -14 -2 -27q-2 -2 -10 -12l-15 -18q-63 -76 -180 -261q-63 -102 -106 -161 l225 139q84 47 156 111q6 3 12 0q10 -2 2 -11q-100 -94 -149 -125l-299 -192q-2 -2 -6.5 -9.5t-12.5 -17.5t-16 -22l-273 -406q-88 -137 -311 -454l-166 -218q-123 -139 -190 -139q-49 0 -49 72zM-938 -1307q0 -23 10 -26q5 -2 11 -2q38 0 112 73q66 66 172 199 q123 152 314 451q74 117 256 374q-8 -6 -21.5 -15t-32.5 -23l-176 -127l-147 -123q-221 -180 -387 -461q-35 -57 -74 -166q-37 -109 -37 -154zM416 520l28 39l15 14q6 6 14 11q2 3 3.5 3t4.5 -3q8 -8 11 -33q0 -23 -11 -47q-20 -23 -37 -23h-4q-27 5 -26 27q0 5 2 12z" />
<glyph unicode="k" horiz-adv-x="598" d="M-86 -18l4 8l4 8l252 319l143 187q125 158 254 338q170 240 312 299l12 2q5 2 9 2q8 0 9 -8l11 -9l1 -4q1 -4 1 -8v-8l-1 -4q-1 -4 -1 -6l-4 -4q-27 -72 -191 -248l-223 -238q-156 -160 -221 -213q-10 -14 -21 -27l-10 -14v-2l-2 -2q-4 -4 -15.5 -18.5l-19.5 -24.5 q-2 -2 -4 -5l-6 -9l94 65l111 72q53 31 118 41q35 0 37 -8q6 -14 -16 -47q-2 -2 -29 -27q-33 -29 -82 -49q-77 -34 -147 -37q-2 0 -23 -16q-19 -40 -18 -78v-10q2 -51 33 -90q61 -78 114 -78q78 0 103 12q76 37 155 107q6 3 13 0q8 -2 0 -11q-102 -94 -150 -125 q-51 -33 -108 -32q-109 0 -181 120q-29 49 -28 99q0 31 10 57q-76 -55 -117 -96l-151 -191q-9 -11 -16 -11q-4 0 -9 5q-6 11 -6 17zM338 477q63 53 244 246q168 180 237 270q34 43 43 62l10 18v2l-8 10l-24 -12q-84 -41 -219 -231zM340 350q78 12 137 47q18 10 39 35 q-67 -12 -176 -82z" />
<glyph unicode="l" horiz-adv-x="266" d="M27 51q-1 11 -2 24q0 114 104 287q70 123 258 424q190 270 426 476q11 9 21 9q7 0 14 -5q10 -6 10 -31q-2 -100 -156 -299q-88 -117 -370 -389l-96 -94l-76 -121q-76 -152 -88 -228q-2 -12 -2 -22q0 -57 55 -57q43 0 65 14q88 51 158 111q6 3 12 0q8 -2 2 -11 q-98 -88 -151 -125q-51 -33 -102 -32q-76 -1 -82 69zM276 524l39 39l191 189q106 109 176 200q78 100 84 113q41 66 51 125q0 9 -4 9q-5 0 -16 -11q-156 -119 -365 -420q-84 -123 -156 -244z" />
<glyph unicode="m" horiz-adv-x="911" d="M-37 88q-1 2 -1 5q0 6 5 9l150 129q104 86 139 92.5t49 -30.5q4 -18 -16 -53q-6 -14 -41 -60l90 76q57 45 137 78q27 10 45 10q33 0 35 -27q2 -12 -12 -38l-94 -138l126 109q80 66 160 100q18 6 43 10q3 0 6 1q31 0 37 -27q2 -14 -16 -39q-2 -4 -86 -117 q-55 -67 -56 -110q0 -34 39 -43q12 -3 24 -3l56 17q106 63 166 115q4 4 13 0q3 -2 3 -5t-3 -6q-115 -106 -156 -129q-59 -37 -103 -37q-8 0 -28 5q-53 10 -66 49q-4 14 -4 28q0 40 33 86q23 31 40 56.5t30.5 44l23.5 32t14 18.5l5 5q0 10 -21 4q-72 -23 -184 -112 q-111 -90 -146 -150q-23 -39 -41 -39q-12 0 -12 23q0 15 74 129q72 113 72 129q0 10 -19 4q-115 -35 -223 -139l-156 -152q-8 -8 -26 -21q-12 -7 -21 -7q-13 0 -18 18q-6 14 6 26l12 15q59 59 127 145q66 84 66 98q-2 8 -11 9q-20 0 -102 -70l-150 -129q-8 -8 -14 6z" />
<glyph unicode="n" horiz-adv-x="704" d="M39 -39q0 16 8 25l12 14q78 78 140 152q76 90 75 104q-2 8 -10 8q-18 0 -76 -49l-120 -102q-12 -12 -17 4q0 12 4 16l123 103q78 63 113 69q7 1 13 1q32 0 42 -25q0 -6 -16 -45q-20 -43 -62 -89q154 108 307 172q16 8 43 9q37 0 39 -21q2 -12 -16 -37q-16 -23 -84 -104 q-51 -54 -51 -97q0 -29 47 -42q13 -3 25 -4q27 0 53 16q88 51 157 111q6 3 13 0q4 -1 4 -4t-4 -7q-102 -94 -150 -125q-51 -33 -98 -32q-84 0 -100 57q-4 16 -5 31q0 39 29 77q86 111 86 115q0 12 -18 6q-123 -39 -264 -145l-181 -150l-24 -16q-12 -6 -24.5 -6t-12.5 10z " />
<glyph unicode="o" horiz-adv-x="528" d="M18 25q-3 14 -2 27q0 17 4 32q29 86 142 178q84 70 188 96q20 14 49 15q77 0 99 -62q4 -16 4 -43q0 -59 -66 -143h41q51 4 111 45q0 2 20 12q8 6 13 -2q2 -3 1.5 -6t-1.5 -6q-4 -6 -21 -21q-66 -45 -119 -51q-14 0 -25.5 -1t-17.5 -2l-6 -1q-4 0 -10 1t-9 2t-5 1 q-141 -133 -281 -133q-39 0 -78 17q-25 12 -31 45zM67 69q0 -14 11 -30q12 -16 39 -21h33q63 0 122 33q16 8 95 66q-74 35 -74 127q0 33 18 69q-57 -23 -116 -65q-49 -35 -95 -94q-33 -47 -33 -85zM336 246q0 -76 59 -105q74 86 74 129q0 20 -12 39q-23 31 -58 31 q-63 0 -63 -94z" />
<glyph unicode="p" horiz-adv-x="552" d="M-666 -1311l2 2l2 15q57 125 164 336l168 333l256 514q166 338 238 521q0 4 14 10q2 1 5 1q4 0 12 -5q-39 -137 -86 -246q137 166 352 240q20 8 51 4q23 -2 33 -23q8 -12 -6 -55q-25 -66 -119 -162q-111 -111 -207 -156q23 -16 49 -16q141 0 203 37q102 61 168 119l4 2 q5 -2 5 -5q0 -2 -3 -5q-98 -90 -152 -123q-93 -58 -225 -58h-24q-61 4 -103 21q-60 -22 -96 -22q-14 0 -27 3l-172 -364q-35 -68 -123 -254l-335 -658l-3 2l-8 -20q-4 -12 -14 -12q-4 0 -10 2q-17 6 -13 22zM51 53q18 5 38 5q32 0 71 -13q55 12 108 51q226 162 226 262 q0 6 -9 9q-14 0 -20 -2q-234 -81 -414 -312z" />
<glyph unicode="q" horiz-adv-x="659" d="M-162 -1061q0 2 1 6l1 4q47 106 137 271q113 213 138 264l172 330q4 29 4 59q0 20 22 39l33 16q27 41 53 88q45 90 97 156q-78 -55 -144 -90q-76 -41 -174 -76q-55 -20 -94 -20q-32 0 -53 14q-17 13 -18 33q0 18 14 47q59 98 178 168q166 98 301 110q7 -1 8 -8 q0 -10 -8 -10q-96 -29 -139 -45q-80 -33 -136 -70q-25 -14 -102 -78q-51 -46 -51 -85q0 -11 14 -11q78 0 133 25q129 59 221 112q121 74 220 181q13 15 25 15q7 0 11 -5q12 -18 -8 -37l-69 -63q-20 -20 -45 -56q-86 -129 -138 -221q-4 -8 -11 -19.5l-15 -25.5q145 66 180 86 q80 49 172 123q2 4 10 0q6 -4 6 -8q0 -3 -4 -8q-101 -95 -159 -130q-182 -109 -250 -141l-9 -4l-36 -57q-14 -135 -31 -234q-14 -74 -74 -248q-47 -137 -149 -288q-98 -147 -199 -148q-35 0 -35 39zM-88 -995q0 -8 6 -19q49 10 113 90q100 125 151 265q63 176 78 245 q2 12 7 54.5t9 70.5l-126 -248z" />
<glyph unicode="r" horiz-adv-x="483" d="M63 154q0 8 3 12l137 137l96 96q14 17 27 18q10 0 18 -9q15 -18 -12 -50q-14 -16 -15 -41q0 -18 9 -45q10 -35 10 -47q0 -25 -12 -30q-41 -25 -80 -76t-45 -86q-2 -14 6 -22.5t26 -8.5q80 0 152 41q109 63 160 107q6 3 12 0q5 -2 5 -5q0 -2 -3 -6q-92 -86 -154 -123 q-98 -64 -177 -63h-7q-45 2 -63 18q-21 18 -21 46q0 9 2 20q18 84 139 194q-13 39 -13 72q0 15 3 29l-190 -182q-9 -8 -13 4z" />
<glyph unicode="s" horiz-adv-x="503" d="M-23 84q0 12 5 16l262 213l88 78q10 29 34.5 51.5t55.5 22.5q20 0 27 -27q3 -25 -19 -37q-37 -20 -55 -32q-14 -25 -15 -64q0 -25 7 -80q8 -74 8 -75q0 -82 -37 -125q35 6 63 18q100 49 154 115q2 6 8 0q2 -5 3 -7q0 -3 -3 -6l-59 -59q-59 -57 -96 -72q-18 -8 -93 -24 q-43 -37 -108 -37h-10q-72 2 -72 53q0 45 70 45l2 -1q2 -1 8 -2t13 -3l20.5 -6t25.5 -8q45 25 60 104q0 18 -1 73.5t-1 90.5q6 35 8 49l-336 -270q-4 0 -8 2z" />
<glyph unicode="t" horiz-adv-x="409" d="M-412 633q0 14 23 35q115 80 278 80q86 0 217 -25l216 -41q61 -4 135 -14q82 145 168 219l-7 -2q13 13 23 12q7 0 12 -6q16 -16 -4 -35q-68 -63 -147 -188l62 -2q49 0 100 4q76 2 268 84q20 10 26 -6q6 -7 6 -14t-8 -11q-16 -16 -24 -23q-150 -84 -342 -84q-53 0 -115 7 l-49 -76l-195 -318q-127 -203 -231 -292q-13 -11 -22 -12q-9 0 -17 9q-6 6 -6 15q0 15 25 37q104 92 223 268l190 305l41 66q-33 8 -53 8q-55 6 -256 49q-152 33 -246 33q-137 0 -221 -64q23 -4 66 -10l8 -8q0 -8 -6 -8q-37 -12 -86 -13q-52 1 -52 21z" />
<glyph unicode="u" horiz-adv-x="550" d="M-10 51q8 47 90 154l96 121q25 31 43 18q4 -2 4 -8l-28 -37l-66 -76q-52 -68 -80 -135q-2 -4 -2 -12q0 -37 53 -37q76 2 181 106l174 195q6 8 18 8q23 0 23 -18q0 -6 -2 -8q-6 -10 -64 -74q-59 -70 -92 -139q-4 -12 -4 -25q0 -51 53 -51q39 0 66 14q94 53 153 103 q6 3 12 0q5 -2 5 -5q0 -2 -2 -6q-80 -74 -148 -116q-51 -33 -102 -33q-53 0 -72 22q-19 20 -19 49q0 26 17 58q-55 -55 -115 -92q-70 -41 -119 -45q-3 0 -6 -1q-31 0 -53 25q-16 18 -16 35z" />
<glyph unicode="v" horiz-adv-x="505" d="M6 63q2 88 60 164q35 45 124 111q16 12 35 14q29 4 39 2q12 -4 12 -8q0 -6 -61 -37q-68 -35 -115 -94q-44 -55 -43 -127v-18q4 -35 33 -35q117 0 264 123q-30 21 -29 60q0 7 1 13q6 55 53 91q51 39 100 38q31 0 43 -26q6 -20 4 -31q-14 -51 -118 -137q27 -16 49 -16 q37 0 84 20q16 8 47 29q8 4 14 -2q2 -3 2 -6q0 -4 -6 -9q-4 -2 -11 -8t-20 -14q-71 -37 -110 -37q-43 0 -80 18q-197 -160 -309 -159q-31 0 -50 30q-12 24 -12 51zM371 231q0 -27 16 -47q111 98 111 133q0 16 -21 17q-31 0 -65 -25q-41 -31 -41 -78z" />
<glyph unicode="w" horiz-adv-x="976" d="M33 63q39 98 278 287q31 25 47 0q6 -10 -8 -31q-35 -27 -45 -34l-119 -95q-70 -57 -102 -116q-12 -23 18 -29q27 -4 45 2q193 55 402 275q31 31 51 28q27 -6 8 -33q-31 -31 -47 -45q-96 -111 -96 -180q0 -18 2 -26q11 -31 62 -31h10q133 6 297 164q207 201 207 401 q0 86 -66 119q-39 20 -82 20q-66 0 -125 -45q-53 -37 -59 -106q0 -20 -13 -21q-8 0 -8 28q0 59 47 103q70 70 162 70q55 0 102 -27q84 -47 84 -166q0 -92 -53 -202q-55 -111 -166 -209q-195 -172 -329 -172q-27 0 -52 6q-51 16 -57 61q-3 16 -3 32q0 37 15 73 q-68 -57 -174 -115q-102 -55 -149 -61q-16 -2 -29 -3q-39 0 -53 19q-9 13 -10 28q1 13 8 31z" />
<glyph unicode="x" horiz-adv-x="782" d="M59 153l2 9l142 114q102 80 133 94.5t125 37.5q7 1 14 0q32 0 51 -11q22 -12 19 -43q-3 -40 -25 -73q18 10 205 135q5 3 10 2l15 -6q0 -9 -7 -13q-147 -106 -235 -163q-37 -100 -37 -127q0 -10 4 -31q23 -59 111 -60q39 0 71 17q98 55 162 106q2 2 4 2q8 0 12.5 -2 t4.5 -4t-2 -4q-52 -49 -148 -123q-53 -33 -116.5 -33t-106.5 21q-53 23 -53 85q0 12 2 26q2 16 26 86l-305 -199q-16 -10 -28 2q-6 18 6 20q160 111 342 224l32 71q16 33 13 45q-12 23 -45 23q-39 0 -103 -31q-55 -27 -278 -203q-7 -6 -12 -4t-5 10z" />
<glyph unicode="y" horiz-adv-x="524" d="M-557 -907q0 72 65 180q35 57 187 225q113 127 332 275l114 80l215 337q-164 -158 -284 -163q-29 0 -43 14q-16 16 -15 37q6 51 68 149q45 70 82 115q10 12 31 27q7 3 14 3l10 -1l4 -9q4 -12 -12 -38l-61 -88q-49 -76 -72 -136q-2 -8 0 -20q4 -12 16 -12q123 6 367 290 q6 8 16 9q12 0 12 -15q0 -2 -4 -10l-286 -453l227 148q111 70 170 121q6 6 8 2q2 -1 2 -3q0 -3 -6 -7q-23 -23 -151 -123q-104 -82 -295 -211q-143 -236 -242 -381q-188 -279 -336 -381q-47 -27 -70 -27q-63 0 -63 66zM-494 -866q0 -10 5 -27q2 -12 22 -12q23 0 35 10 q143 94 313 342q66 94 213 330q-10 -6 -16 -10.5l-16.5 -12.5t-26.5 -18q-205 -135 -311 -254q-84 -94 -156 -197q-62 -85 -62 -151z" />
<glyph unicode="z" horiz-adv-x="565" d="M-596 -1567v12q0 100 49 265q65 209 172 368l119 181q72 106 133 176q139 156 313 323q-4 63 -14 109q-16 63 -123 63q-25 0 -37 -2q-43 -6 -45 4q-6 18 9 29l22 10l256 125q133 76 209 187q20 27 0 30q-7 2 -17 2q-49 0 -151 -39q-137 -53 -229 -133q-6 -4 -13 2 q-2 6 2 11q86 86 220 149q129 61 206 62q14 0 27 -5q8 -2 27 -20q14 -31 2 -55q-6 -18 -29 -41q-117 -131 -403 -266q100 -18 122 -119q0 -4 2.5 -14.5t4.5 -20.5t2 -21l372 340q12 8 21 0q2 -2 2 -4q0 -6 -8 -12l-387 -360q4 -274 -291 -746l-131 -219q-72 -117 -146 -213 l-104 -133q-65 -74 -117 -74q-47 0 -47 49zM-522 -1481q0 -33 16 -32q45 0 152 135q172 219 372 590q166 307 172 507q-195 -195 -286 -303q-45 -53 -236 -344q-123 -188 -186 -512q-4 -29 -4 -41z" />
<glyph unicode="{" horiz-adv-x="651" d="M47 -35q0 127 94 275l52 77q29 51 28 101q0 41 -28 69q-18 8 -58 31q-12 12 -8 25q2 12 18 16q98 20 131 39q57 31 76 92q4 63 15 144q49 244 340 301q18 4 18 -10.5t-18 -16.5q-252 -49 -299 -283q0 -37 -15 -151q-33 -113 -190 -156q6 -2 12 -8q35 -39 35 -86 q0 -86 -78 -200.5t-78 -248.5q0 -143 117 -143q8 0 37 8q23 6 26 6q20 0 21 -20q0 -14 -14 -21q-47 -25 -76 -24q-158 0 -158 184z" />
<glyph unicode="|" horiz-adv-x="813" d="M242 -88q0 4 4 12q6 12 26.5 50l57.5 108l84 156l350 677l127 242q6 12 20 12q25 0 25 -22q0 -8 -2 -12l-121 -244l-348 -680l-168 -313q-8 -14 -25 -15q-30 0 -30 29z" />
<glyph unicode="}" horiz-adv-x="651" d="M-72 -207q0 14 17 17q252 49 299 282q0 20 16 152q33 113 189 155q-6 2 -13 9q-33 35 -33 86q0 86 78 200.5t78 247.5q0 143 -117 143q-8 0 -36 -8q-20 -6 -27 -6q-20 0 -21 21q0 14 13 20q47 25 78 25q156 0 155 -185q0 -129 -92 -274l-51 -78q-29 -51 -29 -100 q0 -41 29 -70q18 -8 57 -31q12 -12 8 -24q-2 -12 -20 -17q-94 -18 -129 -39q-57 -31 -76 -92q-2 -33 -16 -143q-49 -244 -338 -301q-19 -4 -19 10z" />
<glyph unicode="~" horiz-adv-x="442" d="M313 1047q0 10 9 16q88 66 133 65q22 0 55.5 -24.5t73.5 -24.5q53 0 82 41q10 14 20 15q18 0 19 -21q0 -29 -45.5 -59.5t-75.5 -30.5q-43 0 -74 23q-34 25 -55 24q-41 0 -103 -45q-4 -4 -14 -4q-25 0 -25 25z" />
<glyph unicode="&#xa2;" horiz-adv-x="677" d="M150 346q0 113 57 207q37 61 121 145q106 106 219 152l102 242h2v2l3 1q3 1 5 1q14 0 15 -19l-86 -215q37 12 67 12q55 0 62 -49q35 41 65 62q4 4 6 4q6 0 11 -10q4 -12 -2 -15q-41 -31 -88 -104q-16 -25 -39 -70q-6 -12 -21 -12q-23 0 -22 16l1 2q1 2 1 4l4 11 q8 16 29 47q4 16 4 33q0 25 -25 24q-39 0 -76 -12l-190 -522q135 25 299 194q6 6 14 6q12 0 12 -12q0 -8 -6 -14q-96 -98 -147 -140q-102 -80 -195 -94l-108 -303q0 -25 -25 -18q-4 0 -10 10q-2 2 -2 14q63 190 102 293h-12q-55 0 -102 37q-45 37 -45 90zM201 365 q0 -39 32 -64q34 -25 74 -25h25l192 512q-96 -39 -172 -114q-72 -72 -104 -127q-47 -82 -47 -182z" />
<glyph unicode="&#xa3;" horiz-adv-x="1284" d="M18 43q4 27 54 41q39 12 86 12q31 0 75 -10q57 33 129 109q111 111 197 264l-82 2l-41 4q-27 0 -26 18q0 27 32 27q8 2 45 0h101l41 78l92 188q53 109 104 174q139 182 267 183q43 0 77 -21q27 -16 54 -61q25 -41 20 -82q-6 -88 -135 -230q-10 -10 -21 -10q-18 0 -18 16 q0 10 8 19q51 57 72 90q39 59 41 115q2 47 -49 90q-23 16 -54 16q-94 0 -217 -160q-49 -61 -114 -200q-72 -152 -105 -205h47h41h39h43q45 0 74 -4q12 -2 12 -21q4 -18 -10 -22q-6 -3 -74 -6q-53 -4 -86 -4l-10 1q-10 1 -32.5 2t-47.5 1h-26q-94 -158 -228 -293 q-55 -55 -102 -96q31 -16 139 -64q156 -53 299 -53q78 0 174 43q84 39 131 94q6 4 21 18q12 12 26 13q25 0 25 -23q0 -14 -10 -24l-21 -25q-49 -61 -149 -106q-106 -49 -201 -50q-113 0 -303 66q-74 37 -176 78q-83 -49 -172 -49q-58 0 -56 57zM76 43q0 -2 2 0q18 0 63 8 q-65 6 -65 -8z" />
<glyph unicode="&#xa5;" horiz-adv-x="819" d="M-88 903q-10 27 0 60q12 51 88 108q172 127 342 127q137 0 176 -113q33 -90 33 -202q0 -23 -4 -56q-23 -160 -70 -323q72 92 199 223l209 215q178 197 350 236q18 2 25 -17q2 -8 -9 -18q-10 -12 -20 -15q-166 -53 -305 -204l-217 -226q-157 -166 -228 -258h164 q41 0 41 -24.5t-29 -30.5q-20 0 -81.5 -1t-102.5 -1h-27l-55 -107l7 2q7 1 14 1q23 0 81 1t93 1q39 0 39 -27q0 -25 -27 -31h-186q-4 0 -20.5 -1t-29.5 -1l-163 -313q-2 0 -4 2l-7 -21q-6 -16 -24 -10q-16 6 -12 23l2 2l2 14l151 303h-41h-84q-27 0 -53 1l-27 1 q-27 0 -26 23q0 25 24 26q16 0 71.5 1t94.5 1h23.5h18.5t13.5 1t9.5 1h3l53 107h-61h-84h-80q-27 0 -27 25q0 20 27 24q29 0 164 4h86q51 156 86 385q14 111 -25 242q-31 98 -135 100q-71 3 -197 -55q-158 -72 -182 -164l-2 -16q12 -35 59 -35q14 0 27 6q10 4 16 -2 q4 -10 -12 -16q-35 -14 -63 -15q-58 0 -72 37z" />
<glyph unicode="&#xa9;" horiz-adv-x="1032" d="M135 389q0 125 107 287q111 172 276 285q186 129 379 129q172 0 279 -105q102 -102 102 -264q0 -133 -88 -301q-96 -186 -260 -309q-188 -143 -422 -144q-373 0 -373 422zM176 389q0 -381 332 -381q218 0 399 135q152 115 246 293q84 162 84 285q0 143 -92 235.5 t-248 92.5q-182 0 -358 -121q-154 -109 -263 -269q-100 -155 -100 -270zM365 285q0 51 22 125q80 256 361 448q63 45 122 45q23 0 43 -10q74 57 168 84q4 4 11 -4q0 -12 -5 -12q-49 -25 -147 -80q0 -3 -6 -7q23 -27 22 -59q0 -45 -32 -78q-47 -47 -86 -47q-16 0 -23 17 q-6 12 -2 28q16 78 72 131q-49 15 -111 -24q-158 -104 -262 -269q-102 -162 -102 -280q0 -49 26 -80q47 -51 113 -45q141 12 285 199q6 12 20 2q6 -6 0 -19q-147 -221 -303 -229q-86 -6 -137 39q-49 43 -49 125zM856 756q-4 -14 6 -17q33 14 51 43q18 33 -6 68 q-31 -31 -51 -94z" />
<glyph unicode="&#xad;" d="M201 514q0 23 26 25q37 4 99 4q8 0 131 4h151q39 0 39 -24.5t-26 -30.5q-16 0 -71.5 -1.5t-92.5 -1.5h-131h-52h-47q-26 0 -26 25z" />
<glyph unicode="&#xae;" horiz-adv-x="892" d="M279 682q0 123 137 262q150 160 321 160q100 0 168 -64q63 -61 64 -161q0 -135 -119 -281q-145 -174 -346 -174q-225 0 -225 258zM309 682q0 -227 195 -227q193 0 323 161q113 137 113 263q0 86 -55 141q-53 53 -148 53q-160 0 -301 -147q-127 -129 -127 -244zM453 625 q0 12 6 43q12 4 16 2q0 -6 -2 -14.5l-4 -16.5q-2 -16 4 -21h4q16 12 98 140q2 2 6.5 8t6.5 8q-14 0 -27 -2q-20 0 -20 14q0 6 14 21q29 18 55 14q10 18 21 35q33 68 47 113q-45 -14 -96 -45v-2l28 -7q8 0 8 -4q0 -6 -8 -8q-37 -6 -51 6q-14 0 -4 13q0 6 8 12q35 23 123 57 q2 2 2 6q0 6 10 7q8 0 7 -11l-3 -2q106 20 107 -39q0 -33 -45 -78q-18 -18 -66 -47q-14 -12 -55 -32q10 -16 6 -35q0 -31 -16.5 -92.5t-16.5 -77.5q0 -23 15 -37h6q12 0 29 22q0 4 12 5l2 -9q-12 -45 -51 -45q-10 0 -13 6q-29 20 -20 76q4 31 20 86q12 31 9 82l-2 12v-2 l-9 -4q-16 -27 -82 -131q-25 -35 -57 -59l-6 -2q-9 0 -12 6q-4 21 -4 29zM567 793h4q4 0 11.5 2t17.5 4q2 0 2 2v4h-6q-27 -4 -29 -12zM631 813q0 -2 2 -2q16 8 45 25q100 66 102 108q2 31 -28 33q-25 4 -54 -4v2l2 -2q-16 -49 -69 -160z" />
<glyph unicode="&#xb4;" horiz-adv-x="325" d="M295 903q-6 10 6 21l211 211q8 4 14 4q16 0 28.5 -12.5t12.5 -28.5q0 -8 -6 -15q-100 -86 -250 -180q-12 -10 -16 0z" />
<glyph unicode="&#x2000;" horiz-adv-x="815" />
<glyph unicode="&#x2001;" horiz-adv-x="1630" />
<glyph unicode="&#x2002;" horiz-adv-x="815" />
<glyph unicode="&#x2003;" horiz-adv-x="1630" />
<glyph unicode="&#x2004;" horiz-adv-x="542" />
<glyph unicode="&#x2005;" horiz-adv-x="405" />
<glyph unicode="&#x2006;" horiz-adv-x="270" />
<glyph unicode="&#x2007;" horiz-adv-x="270" />
<glyph unicode="&#x2008;" horiz-adv-x="202" />
<glyph unicode="&#x2009;" horiz-adv-x="323" />
<glyph unicode="&#x200a;" horiz-adv-x="90" />
<glyph unicode="&#x2010;" d="M201 514q0 23 26 25q37 4 99 4q8 0 131 4h151q39 0 39 -24.5t-26 -30.5q-16 0 -71.5 -1.5t-92.5 -1.5h-131h-52h-47q-26 0 -26 25z" />
<glyph unicode="&#x2011;" d="M201 514q0 23 26 25q37 4 99 4q8 0 131 4h151q39 0 39 -24.5t-26 -30.5q-16 0 -71.5 -1.5t-92.5 -1.5h-131h-52h-47q-26 0 -26 25z" />
<glyph unicode="&#x2012;" d="M201 514q0 23 26 25q37 4 99 4q8 0 131 4h151q39 0 39 -24.5t-26 -30.5q-16 0 -71.5 -1.5t-92.5 -1.5h-131h-52h-47q-26 0 -26 25z" />
<glyph unicode="&#x2013;" horiz-adv-x="696" d="M154 403.5q0 22.5 26 24.5q37 4 99 4q43 0 231 4q20 0 70.5 1t81.5 1q41 0 40 -26q0 -23 -28 -29q-16 0 -70.5 -1t-91.5 -1q-27 0 -104.5 -1t-128.5 -1h-52q-12 0 -27.5 1t-19.5 1q-26 0 -26 22.5z" />
<glyph unicode="&#x2014;" horiz-adv-x="1163" d="M154 403.5q0 22.5 26 24.5q37 4 99 4q195 0 690 4q20 0 70.5 1t80.5 1q41 0 41 -26q0 -23 -28 -29q-16 0 -70.5 -1t-91.5 -1h-108.5t-250 -1t-333.5 -1h-52q-12 0 -27.5 1t-19.5 1q-26 0 -26 22.5z" />
<glyph unicode="&#x2018;" horiz-adv-x="333" d="M262 868q0 96 168 252q6 6 12 4q8 -2 9 -8q0 -4 -5 -8l-61 -74q-45 -61 -59 -106q18 0 32 -27q16 -29 11 -57q-12 -53 -43 -53q-64 -1 -64 77z" />
<glyph unicode="&#x2019;" horiz-adv-x="333" d="M270 780q0 4 4 8l62 74q45 61 59 107q-14 0 -33 28q-16 27 -10 56q12 53 43 53q63 0 64 -78q0 -96 -168 -252q-6 -6 -12 -4q-9 2 -9 8z" />
<glyph unicode="&#x201c;" horiz-adv-x="491" d="M262 868q0 96 168 252q6 6 12 4q8 -2 9 -8q0 -4 -5 -8l-61 -74q-45 -61 -59 -106q18 0 32 -27q16 -29 11 -57q-12 -53 -43 -53q-64 -1 -64 77zM436 868q0 96 168 252q6 6 12 4q8 -2 9 -8q0 -4 -4 -8l-62 -74q-41 -57 -57 -106q16 0 30 -27q16 -29 11 -57q-12 -53 -43 -53 q-64 -1 -64 77z" />
<glyph unicode="&#x201d;" horiz-adv-x="538" d="M270 780q0 4 4 8l62 74q45 61 59 107q-14 0 -33 28q-16 27 -10 56q12 53 43 53q63 0 64 -78q0 -96 -168 -252q-6 -6 -12 -4q-9 2 -9 8zM428 780q0 4 4 8l62 74q41 57 57 107q-14 0 -33 28q-14 23 -8 56q12 53 43 53q63 0 63 -78q0 -96 -167 -252q-6 -6 -13 -4q-8 2 -8 8z " />
<glyph unicode="&#x2022;" horiz-adv-x="528" d="M168 367q20 90 119 163q70 68 170 95q14 4 43 4q74 0 98 -37q18 -12 23 -64q6 -88 -78 -168q-135 -125 -262 -124q-31 0 -68 14q-31 12 -43 51q-8 33 -2 66z" />
<glyph unicode="&#x2026;" horiz-adv-x="845" d="M158 18q-6 27 14.5 57.5t50.5 39.5q10 2 15.5 -7.5t5.5 -31.5q0 -18 -22.5 -47t-37.5 -29q-26 0 -26 18zM451 18q-6 27 14 58q20 29 53 39q10 2 15.5 -7.5t5.5 -31.5q0 -16 -25 -47q-23 -29 -37 -29q-26 0 -26 18zM752 18q-6 27 14 57.5t51 39.5q10 2 15.5 -7.5 t5.5 -31.5q0 -18 -22.5 -47t-37.5 -29q-26 0 -26 18z" />
<glyph unicode="&#x202f;" horiz-adv-x="323" />
<glyph unicode="&#x205f;" horiz-adv-x="405" />
<glyph unicode="&#x2122;" horiz-adv-x="894" d="M350 965q-2 8 10 20q59 41 142 41q16 0 219 -35q8 0 28.5 -3t34.5 -3q35 53 84 107l4 -7l-2 -2l-4 9q10 12 23 4q8 -14 -2 -23q-35 -35 -68 -88h72q33 0 131 41q10 10 20 -2q8 -8 -2 -18q-12 -12 -14 -13q-88 -49 -227 -41q-2 -4 -23 -37l-53.5 -86l-44.5 -71 q-61 -98 -115 -146q-23 -10 -28 -2q-12 12 10 31q63 53 123 150l102 165q-12 4 -20 5q-205 41 -244 40q-68 0 -113 -28q16 0 29 -2q3 -8 6 -8q0 -8 -8 -9q-12 -4 -41 -3.5t-29 14.5zM680 707q0 8 4 8q66 57 145 112q18 4 31 -20q0 -8 -8 -25q0 -2 -3 -5t-3 -5q41 35 94 62h8 q4 0 8.5 1t6.5 1q23 0 22 -17q0 -6 -8 -20q-18 -31 -27 -43q39 37 119 86q8 2 23 2q23 0 24 -15q0 -10 -8 -22l-43 -62q-27 -35 -27 -51q0 -14 17 -18q10 -4 37 6q10 6 82 57h10q2 -2 2 -8q-39 -39 -78 -67q-51 -20 -70 -19q-29 6 -34 31q-6 35 14 61l55 72q-2 2 -4 0 q-29 -6 -90 -55q-55 -43 -72 -72q-12 -23 -24 -23q-10 0 -11 15q0 6 37 65q35 55 35 62q-2 2 -4 0q-49 -14 -111 -70l-77 -76q-2 0 -6.5 -4t-6.5 -4q-8 -4 -10 -4q-14 0 -16 10q-4 10 4 19l6 6q96 96 94 119q-3 0 -123 -99q-6 -5 -14 9z" />
<glyph unicode="&#xe000;" horiz-adv-x="420" d="M0 420h420v-420h-420v420z" />
<glyph unicode="&#xfb01;" horiz-adv-x="684" d="M396 55q0 53 47 117q35 53 86 119q8 12 53 67l10 13q10 12 21 20q20 20 37 -12q4 -10 -13 -29q-2 -2 -9 -11l-13 -17q-119 -141 -158 -226q-4 -6 -4 -24q0 -51 53 -52q43 0 66 15q88 49 155 106q6 3 13 0q6 -2 0 -8q-98 -92 -148 -123q-50 -33 -94 -33h-8q-43 2 -70 23 q-24 18 -24 55zM693 508q8 14 26 39l17 14q8 8 12 10q2 3 4.5 3t5.5 -3q8 -8 10 -32q0 -16 -12 -47q-20 -23 -35 -23h-4q-27 5 -26 27q0 5 2 12zM-424 -911q41 162 164 405q45 88 225 414l94 160q-41 49 -41 118q0 76 82 77q6 0 13 -1q27 -4 53 -29q102 168 256 388l219 327 q8 12 61 74q12 12 22 12q9 0 15 -10q4 -4 5 -12q0 -13 -13 -33q-20 -37 -199 -293l-229 -315q-6 -14 -82 -123q-4 -8 -31 -45q37 -63 37 -137q0 -23 -2 -43h15q43 0 77 20q41 20 152 115q4 4 10 0q6 -2 0 -8q-55 -51 -143 -123q-45 -31 -96 -31h-21q-14 -66 -43 -133 q-66 -164 -158 -328q-51 -92 -147 -217q-154 -199 -262 -258q-6 -4 -12 -4q-7 0 -14.5 5.5t-7.5 16.5q0 4 1 11zM-362 -850q4 0 8 2q242 188 383 463q82 162 125 270q31 82 39 113q-57 8 -105 45l-74 -127l-204 -358q-119 -217 -172 -396q-2 -6 -2 -9t2 -3zM63 186.5 q0 -49.5 21 -84.5l70 113q-18 20 -41 21q-50 0 -50 -49.5zM104 72q35 -35 95 -45q2 18 2 39q0 66 -25 116q-27 -38 -72 -110z" />
<glyph unicode="&#xfb02;" horiz-adv-x="634" d="M396 51q-1 11 -2 24q0 114 104 287q70 123 258 424q190 270 426 476q11 9 21 9q7 0 14 -5q10 -6 10 -31q-2 -100 -156 -299q-88 -117 -370 -389l-96 -94l-76 -121q-76 -152 -88 -228q-2 -12 -2 -22q0 -57 55 -57q43 0 65 14q88 51 158 111q6 3 12 0q8 -2 2 -11 q-98 -88 -151 -125q-51 -33 -102 -32q-76 -1 -82 69zM645 524l39 39l191 189q106 109 176 200q78 100 84 113q41 66 51 125q0 9 -4 9q-5 0 -16 -11q-156 -119 -365 -420q-84 -123 -156 -244zM-424 -911q41 162 164 405q45 88 225 414l94 160q-41 49 -41 118q0 76 82 77 q6 0 13 -1q27 -4 53 -29q102 168 256 388l219 327q8 12 61 74q12 12 22 12q9 0 15 -10q4 -4 5 -12q0 -13 -13 -33q-20 -37 -199 -293l-229 -315q-6 -14 -82 -123q-4 -8 -31 -45q37 -63 37 -137q0 -23 -2 -43h15q43 0 77 20q41 20 152 115q4 4 10 0q6 -2 0 -8 q-55 -51 -143 -123q-45 -31 -96 -31h-21q-14 -66 -43 -133q-66 -164 -158 -328q-51 -92 -147 -217q-154 -199 -262 -258q-6 -4 -12 -4q-7 0 -14.5 5.5t-7.5 16.5q0 4 1 11zM-362 -850q4 0 8 2q242 188 383 463q82 162 125 270q31 82 39 113q-57 8 -105 45l-74 -127 l-204 -358q-119 -217 -172 -396q-2 -6 -2 -9t2 -3zM63 186.5q0 -49.5 21 -84.5l70 113q-18 20 -41 21q-50 0 -50 -49.5zM104 72q35 -35 95 -45q2 18 2 39q0 66 -25 116q-27 -38 -72 -110z" />
<glyph unicode="&#xfb03;" horiz-adv-x="1052" d="M764 55q0 53 47 117q35 53 86 119q8 12 53 67l10 13q10 12 21 20q20 20 37 -12q4 -10 -13 -29q-2 -2 -9 -11l-13 -17q-119 -141 -158 -226q-4 -6 -4 -24q0 -51 53 -52q43 0 66 15q88 49 155 106q6 3 13 0q6 -2 0 -8q-98 -92 -148 -123q-50 -33 -94 -33h-8q-43 2 -70 23 q-24 18 -24 55zM1061 508q8 14 26 39l17 14q8 8 12 10q2 3 4.5 3t5.5 -3q8 -8 10 -32q0 -16 -12 -47q-20 -23 -35 -23h-4q-27 5 -26 27q0 5 2 12zM-55 -911q41 162 164 405q45 88 225 414l94 160q-41 49 -41 118q0 76 82 77q6 0 13 -1q27 -4 53 -29q102 168 256 388l219 327 q8 12 61 74q12 12 22 12q9 0 15 -10q4 -4 5 -12q0 -13 -13 -33q-20 -37 -199 -293l-229 -315q-6 -14 -82 -123q-4 -8 -31 -45q37 -63 37 -137q0 -23 -2 -43h15q43 0 77 20q41 20 152 115q4 4 10 0q6 -2 0 -8q-55 -51 -143 -123q-45 -31 -96 -31h-21q-14 -66 -43 -133 q-66 -164 -158 -328q-51 -92 -147 -217q-154 -199 -262 -258q-6 -4 -12 -4q-7 0 -14.5 5.5t-7.5 16.5q0 4 1 11zM7 -850q4 0 8 2q242 188 383 463q82 162 125 270q31 82 39 113q-57 8 -105 45l-74 -127l-204 -358q-119 -217 -172 -396q-2 -6 -2 -9t2 -3zM432 186.5 q0 -49.5 21 -84.5l70 113q-18 20 -41 21q-50 0 -50 -49.5zM473 72q35 -35 95 -45q2 18 2 39q0 66 -25 116q-27 -38 -72 -110zM-424 -911q41 162 164 405q45 88 225 414l94 160q-41 49 -41 118q0 76 82 77q6 0 13 -1q27 -4 53 -29q102 168 256 388l219 327q8 12 61 74 q12 12 22 12q9 0 15 -10q4 -4 5 -12q0 -13 -13 -33q-20 -37 -199 -293l-229 -315q-6 -14 -82 -123q-4 -8 -31 -45q37 -63 37 -137q0 -23 -2 -43h15q43 0 77 20q41 20 152 115q4 4 10 0q6 -2 0 -8q-55 -51 -143 -123q-45 -31 -96 -31h-21q-14 -66 -43 -133 q-66 -164 -158 -328q-51 -92 -147 -217q-154 -199 -262 -258q-6 -4 -12 -4q-7 0 -14.5 5.5t-7.5 16.5q0 4 1 11zM-362 -850q4 0 8 2q242 188 383 463q82 162 125 270q31 82 39 113q-57 8 -105 45l-74 -127l-204 -358q-119 -217 -172 -396q-2 -6 -2 -9t2 -3zM63 186.5 q0 -49.5 21 -84.5l70 113q-18 20 -41 21q-50 0 -50 -49.5zM104 72q35 -35 95 -45q2 18 2 39q0 66 -25 116q-27 -38 -72 -110z" />
<glyph unicode="&#xfb04;" horiz-adv-x="1003" d="M764 51q-1 11 -2 24q0 114 104 287q70 123 258 424q190 270 426 476q11 9 21 9q7 0 14 -5q10 -6 10 -31q-2 -100 -156 -299q-88 -117 -370 -389l-96 -94l-76 -121q-76 -152 -88 -228q-2 -12 -2 -22q0 -57 55 -57q43 0 65 14q88 51 158 111q6 3 12 0q8 -2 2 -11 q-98 -88 -151 -125q-51 -33 -102 -32q-76 -1 -82 69zM1013 524l39 39l191 189q106 109 176 200q78 100 84 113q41 66 51 125q0 9 -4 9q-5 0 -16 -11q-156 -119 -365 -420q-84 -123 -156 -244zM-55 -911q41 162 164 405q45 88 225 414l94 160q-41 49 -41 118q0 76 82 77 q6 0 13 -1q27 -4 53 -29q102 168 256 388l219 327q8 12 61 74q12 12 22 12q9 0 15 -10q4 -4 5 -12q0 -13 -13 -33q-20 -37 -199 -293l-229 -315q-6 -14 -82 -123q-4 -8 -31 -45q37 -63 37 -137q0 -23 -2 -43h15q43 0 77 20q41 20 152 115q4 4 10 0q6 -2 0 -8 q-55 -51 -143 -123q-45 -31 -96 -31h-21q-14 -66 -43 -133q-66 -164 -158 -328q-51 -92 -147 -217q-154 -199 -262 -258q-6 -4 -12 -4q-7 0 -14.5 5.5t-7.5 16.5q0 4 1 11zM7 -850q4 0 8 2q242 188 383 463q82 162 125 270q31 82 39 113q-57 8 -105 45l-74 -127l-204 -358 q-119 -217 -172 -396q-2 -6 -2 -9t2 -3zM432 186.5q0 -49.5 21 -84.5l70 113q-18 20 -41 21q-50 0 -50 -49.5zM473 72q35 -35 95 -45q2 18 2 39q0 66 -25 116q-27 -38 -72 -110zM-424 -911q41 162 164 405q45 88 225 414l94 160q-41 49 -41 118q0 76 82 77q6 0 13 -1 q27 -4 53 -29q102 168 256 388l219 327q8 12 61 74q12 12 22 12q9 0 15 -10q4 -4 5 -12q0 -13 -13 -33q-20 -37 -199 -293l-229 -315q-6 -14 -82 -123q-4 -8 -31 -45q37 -63 37 -137q0 -23 -2 -43h15q43 0 77 20q41 20 152 115q4 4 10 0q6 -2 0 -8q-55 -51 -143 -123 q-45 -31 -96 -31h-21q-14 -66 -43 -133q-66 -164 -158 -328q-51 -92 -147 -217q-154 -199 -262 -258q-6 -4 -12 -4q-7 0 -14.5 5.5t-7.5 16.5q0 4 1 11zM-362 -850q4 0 8 2q242 188 383 463q82 162 125 270q31 82 39 113q-57 8 -105 45l-74 -127l-204 -358 q-119 -217 -172 -396q-2 -6 -2 -9t2 -3zM63 186.5q0 -49.5 21 -84.5l70 113q-18 20 -41 21q-50 0 -50 -49.5zM104 72q35 -35 95 -45q2 18 2 39q0 66 -25 116q-27 -38 -72 -110z" />
</font>
</defs>
</svg>
