<?xml version="1.0" standalone="no"?>
<!DOCTYPE svg PUBLIC "-//W3C//DTD SVG 1.1//EN" "http://www.w3.org/Graphics/SVG/1.1/DTD/svg11.dtd">
<svg xmlns="http://www.w3.org/2000/svg">
<defs >
<font id="Overpass" horiz-adv-x="580" ><font-face
    font-family="Overpass"
    units-per-em="1000"
    panose-1="0 0 8 0 0 0 0 0 0 0"
    ascent="982"
    descent="-284"
    alphabetic="0" />
<glyph unicode=" " glyph-name="space" horiz-adv-x="245" />
<glyph unicode="!" glyph-name="exclam" horiz-adv-x="288" d="M114 193L85 488V712H202V488L174 193H114ZM144 -12Q109 -12 86 11T63 67T86 123T144 147Q178 147 202 124T226 67Q226 35 202 12T144 -12Z" />
<glyph unicode="&quot;" glyph-name="quotedbl" horiz-adv-x="434" d="M45 700H188L166 415H68L45 700ZM246 700H389L367 415H269L246 700Z" />
<glyph unicode="#" glyph-name="numbersign" horiz-adv-x="690" d="M124 0L152 183H42L57 282H167L190 435H80L95 534H206L231 700H332L307 534H437L463 700H564L538 534H648L634 435H523L500 282H610L595 183H485L457 0H356L384 183H254L226 0H124ZM269 282H399L422
435H292L269 282Z" />
<glyph unicode="$" glyph-name="dollar" horiz-adv-x="593" d="M237 -95V-5Q169 10 121 55T50 168L161 209Q182 160 219 131T303 102Q352 102 381 127T410 199Q410 223 400 241T367 275T325 298T270 320Q233 334 214 342T164 369T117 407T89 457T76 526Q76 593
118 642T237 707V787H354V706Q413 692 450 655T504 562L396 526Q367 598 286 598Q245 598 222 579T199 526Q199 511 206 498T222 477T251 458T284 443T324 428Q357 415 373 408T419 386T465 356T499 318T525 266T533 200Q533 115 483 61T354 -7V-95H237Z" />
<glyph unicode="%" glyph-name="percent" horiz-adv-x="848" d="M212 351Q128 351 87 405T45 532Q45 601 86 656T212 712T337 658T379 532Q379 462 338 407T212 351ZM241 -12H129L607 712H719L241 -12ZM178 445T212 445T263 469T281 532Q281 571 264 594T212 618T161
594T143 532Q143 492 160 469ZM721 -12T636 -12T510 42T469 169Q469 238 510 293T636 349T761 296T803 169Q803 98 762 43ZM602 82T636 82T687 106T705 169Q705 208 687 231T636 255Q602 255 585 231T567 169Q567 129 584 106Z" />
<glyph unicode="&amp;" glyph-name="ampersand" horiz-adv-x="710" d="M271 -12Q176 -12 118 43T60 188Q60 261 101 309T213 396Q175 441 160 475T144 551Q144 626 193 669T319 712Q393 712 441 667T490 551Q490 492 460 452T374 376L467 264Q481 304 481 345H596Q594
244 548 167L687 0H534L476 71Q393 -12 271 -12ZM343 616T316 616T272 600T255 556Q255 519 310 453Q379 493 379 548Q379 580 361 598ZM285 100Q353 100 408 155L277 316Q184 260 184 192Q184 150 211 125T285 100Z" />
<glyph unicode="&apos;" glyph-name="quotesingle" horiz-adv-x="233" d="M45 700H188L166 415H68L45 700Z" />
<glyph unicode="(" glyph-name="parenleft" horiz-adv-x="359" d="M192 -130Q70 30 70 284Q70 421 108 533T203 712H319Q275 660 232 543T188 284Q188 144 227 35T308 -130H192Z" />
<glyph unicode=")" glyph-name="parenright" horiz-adv-x="359" d="M51 -130Q75 -95 98 -48T146 92T171 284Q171 426 128 543T40 712H156Q212 645 250 533T289 284Q289 30 167 -130H51Z" />
<glyph unicode="*" glyph-name="asterisk" horiz-adv-x="540" d="M288 383L270 441L253 383L181 287L95 349L166 446L214 476L156 477L50 512L83 614L190 580L234 548L216 600V716H324V600L306 547L351 580L457 614L490 512L385 477L326 476L374 446L445 349L359
287L288 383Z" />
<glyph unicode="+" glyph-name="plus" horiz-adv-x="630" d="M374 287V108H257V287H80V400H257V578H374V400H550V287H374Z" />
<glyph unicode="," glyph-name="comma" horiz-adv-x="235" d="M38 -108Q56 -92 76 -64T101 -10Q75 -4 57 15T39 64Q39 99 62 121T118 144Q153 144 176 120T200 50Q200 -6 167 -58T85 -141L38 -108Z" />
<glyph unicode="-" glyph-name="hyphen" horiz-adv-x="404" d="M75 240V353H329V240H75Z" />
<glyph unicode="." glyph-name="period" horiz-adv-x="232" d="M150 -12T116 -12T59 10T36 66T59 121T116 144T173 121T196 66Q196 33 173 11Z" />
<glyph unicode="/" glyph-name="slash" horiz-adv-x="508" d="M-15 -130L378 712H498L105 -130H-15Z" />
<glyph unicode="0" glyph-name="zero" horiz-adv-x="654" d="M327 -12Q270 -12 225 9T152 65T106 148T81 246T73 350Q73 403 80 452T105 549T151 633T224 690T327 712Q398 712 449 681T528 595T568 481T581 350Q581 282 569 223T530 108T450 21T327 -12ZM327 102Q365
102 392 123T433 182T453 260T460 350Q460 400 454 441T433 519T391 577T327 598Q289 598 262 577T221 519T201 440T195 350T201 259T222 181T263 123T327 102Z" />
<glyph unicode="1" glyph-name="one" horiz-adv-x="407" d="M144 0V531H33V623Q144 623 170 700H264V0H144Z" />
<glyph unicode="2" glyph-name="two" horiz-adv-x="613" d="M63 0Q63 248 311 380Q362 407 391 435T420 505T391 572T313 598Q219 598 182 512L74 561Q102 630 166 671T312 712Q417 712 479 654T541 505Q541 423 500 376T371 280Q298 240 259 202T207 116H547V0H63Z" />
<glyph unicode="3" glyph-name="three" horiz-adv-x="602" d="M294 -12Q205 -12 142 31T47 151L157 195Q201 102 296 102Q349 102 383 128T417 204Q417 249 387 278T296 307H235V421H296Q339 421 365 445T392 508Q392 549 367 573T294 598Q219 598 181 527L71
569Q100 635 158 673T296 712Q391 712 452 657T514 519Q514 416 426 368Q477 348 508 306T539 206Q539 103 472 46T294 -12Z" />
<glyph unicode="4" glyph-name="four" horiz-adv-x="649" d="M385 0V150H13V226L371 700H503V260H591V150H503V0H385ZM385 260V548L170 260H385Z" />
<glyph unicode="5" glyph-name="five" horiz-adv-x="604" d="M274 -12Q137 -12 58 54L126 148Q195 102 274 102Q340 102 380 138T421 234Q421 289 391 319T307 349Q242 349 197 301L78 351L99 700H498V585H210L199 433Q250 463 317 463Q425 463 483 397T542 235Q542
123 467 56T274 -12Z" />
<glyph unicode="6" glyph-name="six" horiz-adv-x="606" d="M312 -12Q192 -12 128 63T63 259Q63 439 161 559T460 712V598Q370 584 302 536T206 400Q256 442 335 442Q433 442 495 379T558 214T490 51T312 -12ZM257 102T312 102T402 132T437 214Q437 267 402 297T312
328T222 298T187 214Q187 162 222 132Z" />
<glyph unicode="7" glyph-name="seven" horiz-adv-x="538" d="M174 0Q175 173 221 310T365 584H23V700H500V584Q396 465 346 301T295 0H174Z" />
<glyph unicode="8" glyph-name="eight" horiz-adv-x="621" d="M422 -12T310 -12T131 49T63 208Q63 328 180 383Q92 432 92 528Q92 609 151 660T310 712T469 661T529 528Q529 433 441 384Q495 358 526 313T558 208Q558 110 490 49ZM266 437T310 437T381 461T409
521T382 579T310 602T239 580T212 521T239 461ZM255 99T310 99T401 130T437 211Q437 259 401 292T310 325Q255 325 220 293T185 211Q185 161 220 130Z" />
<glyph unicode="9" glyph-name="nine" horiz-adv-x="606" d="M166 -12V105Q366 115 408 305Q363 260 279 260Q177 260 113 321T48 487Q48 588 117 650T296 712Q420 712 481 638T543 441Q543 235 449 115T166 -12ZM237 377T295 377T387 406T421 488Q421 537 387
566T296 596T206 567T171 488Q171 435 204 406Z" />
<glyph unicode=":" glyph-name="colon" horiz-adv-x="232" d="M150 329T116 329T59 351T36 407T59 462T116 485T173 462T196 407Q196 374 173 352ZM150 -12T116 -12T59 10T36 66T59 121T116 144T173 121T196 66Q196 33 173 11Z" />
<glyph unicode=";" glyph-name="semicolon" horiz-adv-x="232" d="M151 329T117 329T61 351T38 407T61 462T117 485Q151 485 174 462T198 407Q198 374 175 352ZM37 -108Q55 -92 74 -65T100 -10Q73 -5 56 15T38 64Q38 99 61 121T117 144Q152 144 175 120T199 50Q199
-8 166 -59T84 -141L37 -108Z" />
<glyph unicode="&lt;" glyph-name="less" horiz-adv-x="630" d="M550 103L80 295V392L550 583V463L248 343L550 223V103Z" />
<glyph unicode="=" glyph-name="equal" horiz-adv-x="630" d="M80 391V504H550V391H80ZM80 183V296H550V183H80Z" />
<glyph unicode="&gt;" glyph-name="greater" horiz-adv-x="630" d="M550 295L80 103V224L382 343L80 463V583L550 392V295Z" />
<glyph unicode="?" glyph-name="question" horiz-adv-x="503" d="M184 190V218Q184 262 196 297T227 352T267 392T307 426T338 463T351 512Q351 551 325 576T253 601Q198 601 168 568T137 474H20Q20 585 84 648T253 712Q355 712 411 656T468 512Q468 473 456 442T425
393T385 354T345 318T314 275T301 217V190H184ZM277 -12T243 -12T186 10T163 66T186 121T243 144T300 121T323 66Q323 33 300 11Z" />
<glyph unicode="@" glyph-name="at" horiz-adv-x="828" d="M421 -12Q258 -12 159 80T60 338Q60 500 167 606T431 712Q582 712 675 626T768 412Q768 304 710 232T567 160Q541 160 519 174T490 216Q455 158 382 158Q318 158 278 205T238 329Q238 409 290 472T422
536Q486 536 512 487L519 523H613L580 350Q567 282 567 264Q567 243 584 243Q620 243 648 291T677 410Q677 502 614 562T435 622Q313 622 236 541T158 337T229 146T425 78Q489 78 555 95L530 -5Q481 -12 421 -12ZM396 250Q436 250 462 286T488 368Q488 403 472
423T427 444Q387 444 361 410T334 328Q334 293 351 272T396 250Z" />
<glyph unicode="A" glyph-name="A" horiz-adv-x="714" d="M551 0L496 153H219L164 0H37L298 700H417L677 0H551ZM458 261L381 471Q366 509 358 542Q350 513 335 471L257 261H458Z" />
<glyph unicode="B" glyph-name="B" horiz-adv-x="680" d="M85 700H371Q488 700 541 647T595 513Q595 413 505 369Q563 348 591 304T620 207Q620 123 563 62T386 0H85V700ZM355 418Q413 418 443 441T474 504Q474 589 374 589H205V418H355ZM393 111Q449 111 473
138T498 204Q498 307 364 307H205V111H393Z" />
<glyph unicode="C" glyph-name="C" horiz-adv-x="645" d="M353 -12Q290 -12 239 9T156 65T101 148T70 246T60 350Q60 414 76 475T125 590T217 678T353 712Q446 712 509 669T597 563L489 514Q461 557 431 577T353 597Q307 597 273 575T220 515T193 436T184 350Q184
252 227 178T353 104Q433 104 487 194L598 152Q525 -12 353 -12Z" />
<glyph unicode="D" glyph-name="D" horiz-adv-x="698" d="M85 700H301Q372 700 430 680T526 627T589 549T626 454T638 350Q638 300 628 252T592 158T528 77T431 21T297 0H85V700ZM314 113Q367 113 407 134T470 190T503 266T514 350Q514 448 466 517T325 587H205V113H314Z" />
<glyph unicode="E" glyph-name="E" horiz-adv-x="613" d="M85 0V700H541V587H205V418H412V305H205V113H563V0H85Z" />
<glyph unicode="F" glyph-name="F" horiz-adv-x="567" d="M85 0V700H537V587H205V418H417V305H205V0H85Z" />
<glyph unicode="G" glyph-name="G" horiz-adv-x="682" d="M367 -12Q289 -12 229 18T132 101T78 216T60 350Q60 402 71 453T108 551T168 633T254 690T367 712Q459 712 515 675T612 571L505 510Q447 596 367 596Q317 596 280 574T222 514T193 435T184 350Q184 246
230 175T367 104Q425 104 463 142T502 235V246H379V359H624V262Q624 133 552 61T367 -12Z" />
<glyph unicode="H" glyph-name="H" horiz-adv-x="715" d="M511 0V304H205V0H85V700H205V417H511V700H630V0H511Z" />
<glyph unicode="I" glyph-name="I" horiz-adv-x="300" d="M90 0V700H210V0H90Z" />
<glyph unicode="J" glyph-name="J" horiz-adv-x="565" d="M249 -12Q173 -12 113 25T20 131L124 181Q163 103 249 103Q366 103 366 252V700H485V239Q485 182 471 137T433 65T378 20T315 -5T249 -12Z" />
<glyph unicode="K" glyph-name="K" horiz-adv-x="695" d="M520 0L332 351L205 196V0H85V700H205V364L472 700H612L412 452L660 0H520Z" />
<glyph unicode="L" glyph-name="L" horiz-adv-x="565" d="M85 0V700H205V115H545V0H85Z" />
<glyph unicode="M" glyph-name="M" horiz-adv-x="807" d="M722 0H602V372Q602 418 606 456Q594 420 574 370L404 -12L234 372Q216 412 201 456Q205 418 205 372V0H85V700H206L386 289Q397 261 405 237Q413 261 424 289L605 700H722V0Z" />
<glyph unicode="N" glyph-name="N" horiz-adv-x="714" d="M629 0H520L230 442Q216 463 201 494Q204 470 204 442V0H85V700H201L484 265Q494 250 513 212Q510 239 510 265V700H629V0Z" />
<glyph unicode="O" glyph-name="O" horiz-adv-x="734" d="M367 -12Q302 -12 249 9T162 65T104 148T70 245T60 350T70 454T103 552T161 634T249 691T367 712Q448 712 509 681T605 596T657 480T674 350T657 220T606 105T510 20T367 -12ZM367 103Q415 103 452 126T509
186T540 265T550 350Q550 396 540 437T510 516T453 575T367 597Q303 597 260 557T201 463T184 350Q184 305 194 263T224 184T281 125T367 103Z" />
<glyph unicode="P" glyph-name="P" horiz-adv-x="636" d="M85 0V700H376Q497 700 554 637T611 483Q611 397 552 331T376 265H205V0H85ZM382 379Q435 379 461 410T487 483Q487 523 463 554T382 586H205V379H382Z" />
<glyph unicode="Q" glyph-name="Q" horiz-adv-x="734" d="M367 -12Q302 -12 249 9T162 65T104 148T70 245T60 350T70 454T103 552T161 634T249 691T367 712Q448 712 509 681T605 596T657 480T674 350Q674 163 568 61L615 -8L525 -68L475 5Q426 -12 367 -12ZM367
103Q386 103 406 108L354 186L446 246L497 169Q550 236 550 350Q550 396 540 437T510 516T453 575T367 597Q303 597 260 557T201 463T184 350Q184 305 194 263T224 184T281 125T367 103Z" />
<glyph unicode="R" glyph-name="R" horiz-adv-x="685" d="M85 0V700H395Q516 700 570 640T625 487Q625 422 588 365T481 287L621 0H486L351 274H205V0H85ZM205 388H397Q451 388 476 416T501 487Q501 529 477 557T397 586H205V388Z" />
<glyph unicode="S" glyph-name="S" horiz-adv-x="610" d="M309 -12Q213 -12 144 36T45 169L156 210Q178 161 219 132T313 102Q368 102 400 127T433 199Q433 218 424 234T404 262T369 284T330 301T283 318Q243 332 222 340T167 366T116 404T85 454T71 524Q71 604
133 658T301 712Q389 712 447 671T525 562L417 526Q385 598 293 598Q246 598 220 579T193 523Q193 499 213 480T257 452T327 427Q357 416 372 411T416 392T460 369T496 340T528 303T547 257T555 199Q555 101 486 45T309 -12Z" />
<glyph unicode="T" glyph-name="T" horiz-adv-x="598" d="M359 585V0H239V585H40V700H558V585H359Z" />
<glyph unicode="U" glyph-name="U" horiz-adv-x="706" d="M353 -12Q296 -12 249 2T163 48T102 135T80 267V700H200V267Q200 176 239 140T353 103T466 140T506 267V700H626V267Q626 192 605 137T545 50T459 3T353 -12Z" />
<glyph unicode="V" glyph-name="V" horiz-adv-x="674" d="M279 0L35 700H164L321 227Q334 182 339 163Q343 184 356 227L512 700H639L396 0H279Z" />
<glyph unicode="W" glyph-name="W" horiz-adv-x="852" d="M190 0L40 700H163L246 288Q257 230 258 221Q261 243 272 288L375 700H477L582 289Q592 253 596 222Q600 251 608 288L691 700H812L661 0H551L438 433Q427 472 424 498Q421 474 411 434L300 0H190Z" />
<glyph unicode="X" glyph-name="X" horiz-adv-x="671" d="M487 0L336 248L184 0H45L266 362L60 700H199L336 475L473 700H612L405 362L626 0H487Z" />
<glyph unicode="Y" glyph-name="Y" horiz-adv-x="679" d="M280 0V274L28 700H164L340 397L516 700H652L399 274V0H280Z" />
<glyph unicode="Z" glyph-name="Z" horiz-adv-x="654" d="M50 0V94L435 586H73V700H594V607L207 114H594V0H50Z" />
<glyph unicode="[" glyph-name="bracketleft" horiz-adv-x="381" d="M100 -130V712H341V601H217V-19H341V-130H100Z" />
<glyph unicode="\" glyph-name="backslash" horiz-adv-x="508" d="M378 -130L-15 712H105L498 -130H378Z" />
<glyph unicode="]" glyph-name="bracketright" horiz-adv-x="381" d="M281 -130H40V-19H164V601H40V712H281V-130Z" />
<glyph unicode="^" glyph-name="asciicircum" horiz-adv-x="630" d="M445 345L315 562L185 345H64L269 712H362L566 345H445Z" />
<glyph unicode="_" glyph-name="underscore" horiz-adv-x="500" d="M-5 -177V-82H505V-177H-5Z" />
<glyph unicode="`" glyph-name="grave" horiz-adv-x="438" d="M234 576L56 732H208L350 576H234Z" />
<glyph unicode="a" glyph-name="a" horiz-adv-x="545" d="M366 0V41Q315 -12 230 -12Q148 -12 97 32T45 158Q45 241 103 284T245 327Q318 327 366 300V327Q366 376 342 398T266 420Q183 420 114 372L78 467Q161 523 278 523Q318 523 348 517T411 491T462 431T480
329V0H366ZM252 91Q319 91 366 140V206Q322 227 264 227Q217 227 188 210T159 158Q159 127 183 109T252 91Z" />
<glyph unicode="b" glyph-name="b" horiz-adv-x="569" d="M305 -12Q233 -12 192 39V0H75V669L192 722V473Q235 523 307 523Q402 523 460 451T519 256Q519 128 462 58T305 -12ZM291 100Q345 100 373 141T402 256Q402 332 373 372T291 412Q225 412 192 362V149Q224
100 291 100Z" />
<glyph unicode="c" glyph-name="c" horiz-adv-x="533" d="M278 -12Q173 -12 112 59T50 255T111 451T278 523Q436 523 481 382L370 345Q345 411 282 411Q229 411 199 369T169 255Q169 184 198 143T278 101Q349 101 371 175L483 141Q439 -12 278 -12Z" />
<glyph unicode="d" glyph-name="d" horiz-adv-x="569" d="M262 -12Q164 -12 107 59T50 256Q50 379 109 451T262 523Q336 523 377 475V669L494 722V0H377V37Q339 -12 262 -12ZM280 100Q345 100 377 149V363Q344 412 280 412Q226 412 197 372T167 256Q167 185 197
143T280 100Z" />
<glyph unicode="e" glyph-name="e" horiz-adv-x="554" d="M286 -12Q177 -12 114 59T50 256Q50 380 114 451T286 523Q384 523 446 462T509 283Q509 242 505 211H166Q169 157 203 124T286 91Q354 91 394 144L468 68Q401 -12 286 -12ZM167 308H393Q389 363 359 391T286
420Q236 420 204 393T167 308Z" />
<glyph unicode="f" glyph-name="f" horiz-adv-x="348" d="M226 409V0H109V409H35V511H109V591Q109 712 230 712Q291 712 338 688V592Q297 609 265 609Q226 609 226 569V511H338V409H226Z" />
<glyph unicode="g" glyph-name="g" horiz-adv-x="569" d="M253 -200L191 -106Q296 -99 336 -74T377 5V34Q335 -12 261 -12Q167 -12 109 57T50 256Q50 380 108 451T262 523Q334 523 377 480V511H494V51Q494 -76 440 -133T253 -200ZM281 100Q344 100 377 150V362Q342
412 281 412Q226 412 197 372T167 256Q167 184 197 142T281 100Z" />
<glyph unicode="h" glyph-name="h" horiz-adv-x="578" d="M75 0V668L192 722V463Q242 523 327 523Q407 523 457 473T508 314V0H391V295Q391 412 296 412Q192 412 192 297V0H75Z" />
<glyph unicode="i" glyph-name="i" horiz-adv-x="269" d="M164 581T135 581T86 601T65 651T85 700T135 720T184 700T204 651T184 602ZM76 0V511H193V0H76Z" />
<glyph unicode="j" glyph-name="j" horiz-adv-x="269" d="M164 581T135 581T86 601T65 651T85 700T135 720T184 700T204 651T184 602ZM-7 -214L-65 -124Q15 -107 45 -82T76 -8V511H193V26Q193 -85 144 -136Q90 -193 -7 -214Z" />
<glyph unicode="k" glyph-name="k" horiz-adv-x="558" d="M523 0H395L249 282L192 226V0H75V667L192 722V363L336 511H478L333 366L523 0Z" />
<glyph unicode="l" glyph-name="l" horiz-adv-x="277" d="M80 0V667L197 722V0H80Z" />
<glyph unicode="m" glyph-name="m" horiz-adv-x="862" d="M675 0V293Q675 412 588 412Q543 412 518 382T492 291V0H375V293Q375 412 288 412Q243 412 218 382T192 291V0H75V511H192V464Q236 523 317 523Q411 523 451 451Q500 523 605 523Q691 523 741 476T792 326V0H675Z" />
<glyph unicode="n" glyph-name="n" horiz-adv-x="578" d="M391 0V293Q391 412 296 412Q192 412 192 295V0H75V511H192V463Q242 523 327 523Q407 523 457 473T508 314V0H391Z" />
<glyph unicode="o" glyph-name="o" horiz-adv-x="569" d="M284 -12Q176 -12 113 59T50 255T113 451T284 523T455 452T519 255T456 59T284 -12ZM284 100Q339 100 370 141T402 255T371 370T284 412Q231 412 199 370T167 255T198 142T284 100Z" />
<glyph unicode="p" glyph-name="p" horiz-adv-x="569" d="M308 -12Q234 -12 192 41V-147L75 -201V511H192V472Q234 523 309 523Q406 523 462 453T519 255Q519 131 461 60T308 -12ZM291 100Q344 100 373 140T402 255Q402 326 373 369T291 412Q226 412 192 362V150Q227
100 291 100Z" />
<glyph unicode="q" glyph-name="q" horiz-adv-x="569" d="M262 -12Q168 -12 109 59T50 255Q50 381 108 452T265 523Q336 523 377 472V511H494V-147L377 -200V41Q334 -12 262 -12ZM279 100Q342 100 377 150V362Q344 412 279 412Q226 412 197 369T167 255Q167 180
196 140T279 100Z" />
<glyph unicode="r" glyph-name="r" horiz-adv-x="408" d="M75 0V511H192V458Q223 523 297 523Q351 523 392 488L375 381Q337 408 288 408Q248 408 220 380T192 286V0H75Z" />
<glyph unicode="s" glyph-name="s" horiz-adv-x="485" d="M239 -12Q177 -12 123 12T40 76L120 144Q174 90 239 90Q322 90 322 140Q322 157 308 171T277 192T223 215Q135 244 95 281T54 381Q54 448 105 485T236 523Q352 523 419 444L338 378Q293 421 236 421Q167
421 167 379Q167 358 192 343T267 312Q350 284 392 246T435 140Q435 67 382 28T239 -12Z" />
<glyph unicode="t" glyph-name="t" horiz-adv-x="386" d="M225 -12Q106 -12 106 119V409H30V511H106V666L223 722V511H341V409H223V142Q223 93 266 93Q305 93 346 116L332 11Q288 -12 225 -12Z" />
<glyph unicode="u" glyph-name="u" horiz-adv-x="578" d="M386 0V49Q338 -12 252 -12Q172 -12 121 38T70 198V511H187V219Q187 100 283 100Q386 100 386 217V511H503V0H386Z" />
<glyph unicode="v" glyph-name="v" horiz-adv-x="540" d="M212 0L25 511H144L257 192Q269 152 271 146Q277 172 285 192L396 511H515L328 0H212Z" />
<glyph unicode="w" glyph-name="w" horiz-adv-x="739" d="M175 0L35 511H150L216 228Q221 205 228 168Q233 195 241 228L316 511H423L497 228Q505 195 510 168Q517 205 522 228L589 511H704L564 0H460L385 276Q370 335 369 346Q365 326 353 276L278 0H175Z" />
<glyph unicode="x" glyph-name="x" horiz-adv-x="556" d="M33 0L210 266L46 511H181L250 407Q274 371 278 361Q295 392 305 407L375 511H510L345 266L523 0H388L305 124Q295 139 278 170Q271 154 250 124L168 0H33Z" />
<glyph unicode="y" glyph-name="y" horiz-adv-x="554" d="M138 -194L217 8L25 511H143L262 197Q271 175 277 151Q282 173 291 197L411 511H529L259 -194H138Z" />
<glyph unicode="z" glyph-name="z" horiz-adv-x="528" d="M55 0V94L323 407H75V511H468V421L201 104H467V0H55Z" />
<glyph unicode="{" glyph-name="braceleft" horiz-adv-x="373" d="M333 -130Q230 -128 172 -69T113 104V166Q113 200 100 219T63 239H40V344H63Q87 344 100 364T113 417V478Q113 591 171 650T333 712V607Q230 601 230 496V427Q230 364 210 333T148 291Q230 270
230 155V86Q230 -21 333 -25V-130Z" />
<glyph unicode="|" glyph-name="bar" horiz-adv-x="287" d="M85 -378V1062H202V-378H85Z" />
<glyph unicode="}" glyph-name="braceright" horiz-adv-x="373" d="M40 -130V-25Q144 -20 144 86V155Q144 270 226 291Q185 301 165 332T144 427V496Q144 601 40 607V712Q143 709 202 650T261 478V417Q261 384 274 364T311 344H333V239H311Q287 239 274 220T261
166V104Q261 -9 202 -68T40 -130Z" />
<glyph unicode="~" glyph-name="asciitilde" horiz-adv-x="630" d="M413 259Q367 259 306 287T221 315Q175 315 168 259H79Q79 332 113 380T217 428Q264 428 324 400T409 372Q457 372 462 428H551Q551 355 517 307T413 259Z" />
<glyph unicode="&#xa0;" glyph-name="uni00A0" horiz-adv-x="245" />
<glyph unicode="&#xa1;" glyph-name="exclamdown" horiz-adv-x="288" d="M179 364T145 364T87 387T63 444Q63 476 87 499T145 523T202 500T226 444Q226 411 203 388ZM203 -200H86V24L115 319H175L203 24V-200Z" />
<glyph unicode="&#xa2;" glyph-name="cent" horiz-adv-x="533" d="M211 -12V92Q135 113 93 180T50 350T92 521T211 609V712H323V615Q443 596 481 477L370 440Q345 506 282 506Q229 506 199 464T169 350Q169 279 198 238T278 196Q349 196 371 270L483 236Q447 107
323 87V-12H211Z" />
<glyph unicode="&#xa3;" glyph-name="sterling" horiz-adv-x="595" d="M80 0V114Q146 145 161 252Q162 261 162 276H75V382H135Q104 448 104 508Q104 592 164 652T339 712Q460 712 558 640L512 529Q488 549 471 561T418 586T339 599Q282 599 254 573T225 508Q225
495 229 480T237 453T250 419T266 382H434V276H283Q283 260 282 252Q272 171 222 114H565V0H80Z" />
<glyph unicode="&#xa4;" glyph-name="currency" horiz-adv-x="640" d="M320 86Q247 86 192 118L124 49L36 137L108 209Q81 262 81 333Q81 400 110 458L36 532L121 616L190 547Q246 581 320 581T448 548L516 616L604 529L532 457Q560 399 560 333Q560 261 531 206L604
134L519 49L449 119Q392 86 320 86ZM320 199Q374 199 407 236T440 333T407 430T320 468Q267 468 234 430T201 333Q201 275 234 237T320 199Z" />
<glyph unicode="&#xa5;" glyph-name="yen" horiz-adv-x="591" d="M365 337H493V243H354V177H493V83H354V0H237V83H96V177H237V243H96V337H225L15 700H149L295 438L440 700H576L365 337Z" />
<glyph unicode="&#xa6;" glyph-name="brokenbar" horiz-adv-x="287" d="M85 366V825H202V366H85ZM85 -225V234H202V-225H85Z" />
<glyph unicode="&#xa7;" glyph-name="section" horiz-adv-x="527" d="M267 -120Q124 -120 50 -25L135 48Q196 -8 267 -8Q355 -8 355 52Q355 59 353 65T346 78T335 90T320 101T302 112T281 122T258 132T233 143T207 155Q171 171 152 181T109 210T73 254T62 314Q62
386 126 422Q62 469 62 547Q62 624 117 668T260 712Q387 712 457 626L368 555Q325 600 260 600Q225 600 204 586T183 549Q183 532 204 515T248 488T316 460Q354 445 376 434T425 402T464 354T477 289Q477 218 421 180Q477 131 477 55Q477 -28 422 -74T267 -120ZM328
235Q355 246 355 279Q355 307 324 326T228 367Q183 359 183 324Q183 290 305 244Q320 238 328 235Z" />
<glyph unicode="&#xa8;" glyph-name="dieresis" horiz-adv-x="438" d="M154 586T126 586T78 606T58 654T78 702T126 722T174 702T194 654T174 606ZM340 586T311 586T263 606T243 654T262 702T311 722T359 702T379 654T360 606Z" />
<glyph unicode="&#xa9;" glyph-name="copyright" horiz-adv-x="844" d="M576 -12T422 -12T164 92T60 350T164 608T422 712T680 608T784 350T680 92ZM302 67T422 67T621 148T700 350T621 552T422 633T224 552T145 350T223 148ZM426 132Q362 132 320 166T263 246T247
350Q247 404 263 451T322 533T426 568Q481 568 519 543T575 477L496 440Q468 483 426 483Q381 483 360 443T338 350T361 258T426 217T496 262L576 234Q531 132 426 132Z" />
<glyph unicode="&#xaa;" glyph-name="ordfeminine" horiz-adv-x="439" d="M288 283V313Q248 273 182 273Q118 273 77 309T35 413Q35 481 82 517T194 553Q248 553 288 533V551Q288 591 269 608T211 626Q144 626 92 586L63 666Q128 712 222 712Q254 712 278 707T329
686T369 637T384 553V283H288ZM201 360Q252 360 288 396V452Q251 468 211 468Q176 468 154 455T132 413Q132 389 150 375T201 360Z" />
<glyph unicode="&#xab;" glyph-name="guillemotleft" horiz-adv-x="543" d="M182 0L30 256L182 511H309L157 256L309 0H182ZM402 0L250 256L402 511H528L376 256L528 0H402Z" />
<glyph unicode="&#xac;" glyph-name="logicalnot" horiz-adv-x="630" d="M433 165V364H80V477H550V165H433Z" />
<glyph unicode="&#xad;" glyph-name="uni00AD" horiz-adv-x="404" d="M75 240V353H329V240H75Z" />
<glyph unicode="&#xae;" glyph-name="registered" horiz-adv-x="844" d="M576 -12T422 -12T164 92T60 350T164 608T422 712T680 608T784 350T680 92ZM302 67T422 67T621 148T700 350T621 552T422 633T224 552T145 350T223 148ZM275 139V561H448Q522 561 554 525T587
432Q587 393 565 360T499 312L596 139H498L412 303H363V139H275ZM363 385H445Q471 385 483 398T496 432Q496 479 445 479H363V385Z" />
<glyph unicode="&#xaf;" glyph-name="overscore" horiz-adv-x="438" d="M54 592V688H384V592H54Z" />
<glyph unicode="&#xb0;" glyph-name="degree" horiz-adv-x="406" d="M203 450Q129 450 77 501T25 627Q25 702 76 752T203 803T329 753T381 627Q381 553 330 502T203 450ZM174 554T203 554T251 575T271 627T252 678T203 698T155 678T135 627T154 575Z" />
<glyph unicode="&#xb1;" glyph-name="plusminus" horiz-adv-x="630" d="M374 345V195H257V345H80V458H257V608H374V458H550V345H374ZM80 0V113H550V0H80Z" />
<glyph unicode="&#xb2;" glyph-name="uni00B2" horiz-adv-x="364" d="M25 444Q25 611 172 686Q190 696 199 702T216 719T225 743Q225 760 213 772T178 784Q127 784 115 727L25 749Q38 804 80 838T180 873Q246 873 286 837T326 744Q326 718 319 698T295 662T264
637T222 612Q158 576 138 534H325V444H25Z" />
<glyph unicode="&#xb3;" glyph-name="uni00B3" horiz-adv-x="351" d="M168 437Q110 437 70 469T12 560L104 584Q118 525 170 525Q193 525 207 537T221 572Q221 619 162 619H128V704H161Q184 704 195 715T207 744Q207 762 196 773T165 785Q128 785 113 743L27 774Q45
820 83 846T171 873Q231 873 267 838T304 752Q304 725 290 701T253 664Q318 636 318 567Q318 509 278 473T168 437Z" />
<glyph unicode="&#xb4;" glyph-name="acute" horiz-adv-x="438" d="M89 576L231 732H383L205 576H89Z" />
<glyph unicode="&#xb5;" glyph-name="uni00B5" horiz-adv-x="581" d="M389 0V48Q348 -12 274 -12Q220 -12 190 21V-145L73 -200V511H190V219Q190 155 213 128T285 100Q389 100 389 217V511H506V0H389Z" />
<glyph unicode="&#xb6;" glyph-name="paragraph" horiz-adv-x="638" d="M244 -200V275Q168 276 116 310T42 389T20 487Q20 576 76 638T252 700H558V-61L441 -114V588H361V-147L244 -200Z" />
<glyph unicode="&#xb7;" glyph-name="middot" horiz-adv-x="232" d="M150 272T116 272T59 294T36 349Q36 382 59 405T116 428T173 405T196 349Q196 317 173 295Z" />
<glyph unicode="&#xb8;" glyph-name="cedilla" horiz-adv-x="438" d="M210 -242Q139 -242 105 -199L158 -160Q172 -177 198 -177Q221 -177 234 -166T247 -135Q247 -117 233 -106T196 -94Q172 -94 154 -106L131 -77L202 10H265L229 -48Q285 -48 313 -72T341 -136Q341
-183 306 -212T210 -242Z" />
<glyph unicode="&#xb9;" glyph-name="uni00B9" horiz-adv-x="212" d="M63 444V766H10V838Q66 838 83 866H159V444H63Z" />
<glyph unicode="&#xba;" glyph-name="ordmasculine" horiz-adv-x="465" d="M320 273T232 273T92 331T40 492Q40 595 92 653T232 712T372 654T425 492Q425 390 373 332ZM188 367T232 367T301 400T326 492T301 585T232 619T164 586T139 492Q139 433 163 400Z" />
<glyph unicode="&#xbb;" glyph-name="guillemotright" horiz-adv-x="543" d="M15 0L167 256L15 511H142L294 256L142 0H15ZM235 0L387 256L235 511H361L513 256L361 0H235Z" />
<glyph unicode="&#xbc;" glyph-name="onequarter" horiz-adv-x="703" d="M12 -12L490 712H600L122 -12H12ZM66 283V605H13V677Q69 677 85 705H162V283H66ZM534 0V83H325V146L536 423H625V168H680V83H625V0H534ZM534 168V297L435 168H534Z" />
<glyph unicode="&#xbd;" glyph-name="onehalf" horiz-adv-x="745" d="M12 -12L490 712H600L122 -12H12ZM66 283V605H13V677Q69 677 85 705H162V283H66ZM406 0Q406 167 553 242Q571 252 580 258T597 275T606 299Q606 316 594 328T559 340Q509 340 496 283L406 305Q419
360 461 394T561 429Q627 429 667 393T707 300Q707 272 699 251T673 214T640 188T595 163Q539 134 519 90H706V0H406Z" />
<glyph unicode="&#xbe;" glyph-name="threequarters" horiz-adv-x="821" d="M168 276Q110 276 70 308T12 399L104 423Q118 364 170 364Q193 364 207 376T221 411Q221 458 162 458H128V543H161Q207 543 207 583Q207 601 196 612T165 624Q128 624 113 582L27 613Q45
659 83 685T171 712Q231 712 267 677T304 591Q304 534 253 503Q318 475 318 406Q318 347 278 312T168 276ZM131 -12L609 712H719L241 -12H131ZM652 0V83H444V146L655 423H743V168H798V83H743V0H652ZM652 168V297L554 168H652Z" />
<glyph unicode="&#xbf;" glyph-name="questiondown" horiz-adv-x="503" d="M261 367Q227 367 204 390T181 445Q181 478 204 500T261 523T318 500T341 445T318 390T261 367ZM251 -200Q149 -200 92 -144T35 1Q35 46 52 80T93 137T143 179T185 229T202 296V323H319V295Q319
243 302 204T261 142T211 100T169 57T152 1Q152 -39 178 -64T251 -89Q306 -89 336 -56T366 39H483Q483 -73 419 -136T251 -200Z" />
<glyph unicode="&#xc0;" glyph-name="Agrave" horiz-adv-x="714" d="M372 765L194 921H346L488 765H372ZM551 0L496 153H219L164 0H37L298 700H417L677 0H551ZM458 261L381 471Q366 509 358 542Q350 513 335 471L257 261H458Z" />
<glyph unicode="&#xc1;" glyph-name="Aacute" horiz-adv-x="714" d="M227 765L369 921H521L343 765H227ZM551 0L496 153H219L164 0H37L298 700H417L677 0H551ZM458 261L381 471Q366 509 358 542Q350 513 335 471L257 261H458Z" />
<glyph unicode="&#xc2;" glyph-name="Acircumflex" horiz-adv-x="714" d="M446 765L357 839L268 765H158L300 921H415L556 765H446ZM551 0L496 153H219L164 0H37L298 700H417L677 0H551ZM458 261L381 471Q366 509 358 542Q350 513 335 471L257 261H458Z" />
<glyph unicode="&#xc3;" glyph-name="Atilde" horiz-adv-x="714" d="M436 774Q398 774 346 797T271 821Q225 821 224 778H168Q168 912 278 912Q316 912 368 889T443 865Q487 865 490 908H546Q546 774 436 774ZM551 0L496 153H219L164 0H37L298 700H417L677 0H551ZM458
261L381 471Q366 509 358 542Q350 513 335 471L257 261H458Z" />
<glyph unicode="&#xc4;" glyph-name="Adieresis" horiz-adv-x="714" d="M292 775T264 775T216 794T196 843T216 891T264 911T312 892T332 843T312 795ZM478 775T449 775T401 794T381 843T400 891T449 911T497 892T517 843T498 795ZM551 0L496 153H219L164 0H37L298
700H417L677 0H551ZM458 261L381 471Q366 509 358 542Q350 513 335 471L257 261H458Z" />
<glyph unicode="&#xc5;" glyph-name="Aring" horiz-adv-x="714" d="M37 0L276 643Q231 680 231 739Q231 791 268 827T357 863T446 827T484 739Q484 681 438 643L677 0H551L496 153H219L164 0H37ZM357 695Q374 695 386 707T399 739T387 770T357 782Q339 782 327
770T315 739T327 708T357 695ZM257 261H458L381 471Q364 518 358 542Q347 504 335 471L257 261Z" />
<glyph unicode="&#xc6;" glyph-name="AE" horiz-adv-x="866" d="M-19 0L388 700H802V587H515V418H673V305H515V113H823V0H395V153H197L110 0H-19ZM260 261H395V507Q386 486 363 443L260 261Z" />
<glyph unicode="&#xc7;" glyph-name="Ccedilla" horiz-adv-x="645" d="M344 -242Q273 -242 239 -199L292 -160Q306 -177 332 -177Q355 -177 368 -166T381 -135Q381 -117 367 -106T330 -94Q306 -94 288 -106L265 -77L319 -10Q250 -3 198 30T117 116T74 226T60 350Q60
414 76 475T125 590T217 678T353 712Q446 712 509 669T597 563L489 514Q461 557 431 577T353 597Q307 597 273 575T220 515T193 436T184 350Q184 252 227 178T353 104Q433 104 487 194L598 152Q536 7 387 -10L363 -48Q419 -48 447 -72T475 -136Q475 -183 440 -212T344
-242Z" />
<glyph unicode="&#xc8;" glyph-name="Egrave" horiz-adv-x="613" d="M312 765L134 921H286L428 765H312ZM85 0V700H541V587H205V418H412V305H205V113H563V0H85Z" />
<glyph unicode="&#xc9;" glyph-name="Eacute" horiz-adv-x="613" d="M203 765L345 921H497L319 765H203ZM85 0V700H541V587H205V418H412V305H205V113H563V0H85Z" />
<glyph unicode="&#xca;" glyph-name="Ecircumflex" horiz-adv-x="613" d="M411 765L322 839L233 765H123L265 921H380L521 765H411ZM85 0V700H541V587H205V418H412V305H205V113H563V0H85Z" />
<glyph unicode="&#xcb;" glyph-name="Edieresis" horiz-adv-x="613" d="M258 775T229 775T181 794T161 843T180 891T229 911T277 892T297 843T278 795ZM442 775T414 775T366 794T346 843T366 891T414 911T462 892T482 843T462 795ZM85 0V700H541V587H205V418H412V305H205V113H563V0H85Z"
/>
<glyph unicode="&#xcc;" glyph-name="Igrave" horiz-adv-x="300" d="M165 765L-13 921H139L281 765H165ZM90 0V700H210V0H90Z" />
<glyph unicode="&#xcd;" glyph-name="Iacute" horiz-adv-x="300" d="M30 765L172 921H324L146 765H30ZM90 0V700H210V0H90Z" />
<glyph unicode="&#xce;" glyph-name="Icircumflex" horiz-adv-x="300" d="M239 765L150 839L61 765H-49L93 921H208L349 765H239ZM90 0V700H210V0H90Z" />
<glyph unicode="&#xcf;" glyph-name="Idieresis" horiz-adv-x="300" d="M86 775T57 775T9 794T-11 843T8 891T57 911T105 892T125 843T106 795ZM270 775T242 775T194 794T174 843T194 891T242 911T290 892T310 843T290 795ZM90 0V700H210V0H90Z" />
<glyph unicode="&#xd0;" glyph-name="Eth" horiz-adv-x="698" d="M85 295H22V406H85V700H301Q372 700 430 680T526 627T589 549T626 454T638 350Q638 300 628 252T592 158T528 77T431 21T297 0H85V295ZM314 113Q367 113 407 134T470 190T503 266T514 350Q514 448
466 517T325 587H205V406H352V295H205V113H314Z" />
<glyph unicode="&#xd1;" glyph-name="Ntilde" horiz-adv-x="714" d="M446 774Q408 774 356 797T281 821Q235 821 234 778H178Q178 912 288 912Q326 912 378 889T453 865Q497 865 500 908H556Q556 774 446 774ZM629 0H520L230 442Q216 463 201 494Q204 470 204
442V0H85V700H201L484 265Q494 250 513 212Q510 239 510 265V700H629V0Z" />
<glyph unicode="&#xd2;" glyph-name="Ograve" horiz-adv-x="734" d="M362 766L184 922H336L478 766H362ZM367 -12Q302 -12 249 9T162 65T104 148T70 245T60 350T70 454T103 552T161 634T249 691T367 712Q448 712 509 681T605 596T657 480T674 350T657 220T606
105T510 20T367 -12ZM367 103Q415 103 452 126T509 186T540 265T550 350Q550 396 540 437T510 516T453 575T367 597Q303 597 260 557T201 463T184 350Q184 305 194 263T224 184T281 125T367 103Z" />
<glyph unicode="&#xd3;" glyph-name="Oacute" horiz-adv-x="734" d="M237 765L379 921H531L353 765H237ZM367 -12Q302 -12 249 9T162 65T104 148T70 245T60 350T70 454T103 552T161 634T249 691T367 712Q448 712 509 681T605 596T657 480T674 350T657 220T606
105T510 20T367 -12ZM367 103Q415 103 452 126T509 186T540 265T550 350Q550 396 540 437T510 516T453 575T367 597Q303 597 260 557T201 463T184 350Q184 305 194 263T224 184T281 125T367 103Z" />
<glyph unicode="&#xd4;" glyph-name="Ocircumflex" horiz-adv-x="734" d="M456 765L367 839L278 765H168L310 921H425L566 765H456ZM367 -12Q302 -12 249 9T162 65T104 148T70 245T60 350T70 454T103 552T161 634T249 691T367 712Q448 712 509 681T605 596T657
480T674 350T657 220T606 105T510 20T367 -12ZM367 103Q415 103 452 126T509 186T540 265T550 350Q550 396 540 437T510 516T453 575T367 597Q303 597 260 557T201 463T184 350Q184 305 194 263T224 184T281 125T367 103Z" />
<glyph unicode="&#xd5;" glyph-name="Otilde" horiz-adv-x="734" d="M446 774Q408 774 356 797T281 821Q235 821 234 778H178Q178 912 288 912Q326 912 378 889T453 865Q497 865 500 908H556Q556 774 446 774ZM367 -12Q302 -12 249 9T162 65T104 148T70 245T60
350T70 454T103 552T161 634T249 691T367 712Q448 712 509 681T605 596T657 480T674 350T657 220T606 105T510 20T367 -12ZM367 103Q415 103 452 126T509 186T540 265T550 350Q550 396 540 437T510 516T453 575T367 597Q303 597 260 557T201 463T184 350Q184 305
194 263T224 184T281 125T367 103Z" />
<glyph unicode="&#xd6;" glyph-name="Odieresis" horiz-adv-x="734" d="M302 775T274 775T226 794T206 843T226 891T274 911T322 892T342 843T322 795ZM488 775T459 775T411 794T391 843T410 891T459 911T507 892T527 843T508 795ZM367 -12Q302 -12 249 9T162
65T104 148T70 245T60 350T70 454T103 552T161 634T249 691T367 712Q448 712 509 681T605 596T657 480T674 350T657 220T606 105T510 20T367 -12ZM367 103Q415 103 452 126T509 186T540 265T550 350Q550 396 540 437T510 516T453 575T367 597Q303 597 260 557T201
463T184 350Q184 305 194 263T224 184T281 125T367 103Z" />
<glyph unicode="&#xd7;" glyph-name="multiply" horiz-adv-x="630" d="M316 261L163 107L79 192L232 344L80 497L161 579L314 426L467 580L552 495L398 342L551 190L469 108L316 261Z" />
<glyph unicode="&#xd8;" glyph-name="Oslash" horiz-adv-x="729" d="M60 -12L133 95Q58 195 58 350Q58 418 75 480T126 595T222 680T365 712Q456 712 524 671L552 712H669L596 605Q671 505 671 350Q671 282 654 220T603 105T507 20T365 -12Q273 -12 205 30L177
-12H60ZM210 208L456 571Q417 597 365 597Q316 597 279 574T222 514T192 435T182 350Q182 270 210 208ZM365 103Q413 103 450 126T507 186T537 265T547 350Q547 432 519 492L273 130Q311 103 365 103Z" />
<glyph unicode="&#xd9;" glyph-name="Ugrave" horiz-adv-x="706" d="M368 765L190 921H342L484 765H368ZM353 -12Q296 -12 249 2T163 48T102 135T80 267V700H200V267Q200 176 239 140T353 103T466 140T506 267V700H626V267Q626 192 605 137T545 50T459 3T353 -12Z" />
<glyph unicode="&#xda;" glyph-name="Uacute" horiz-adv-x="706" d="M241 765L383 921H535L357 765H241ZM353 -12Q296 -12 249 2T163 48T102 135T80 267V700H200V267Q200 176 239 140T353 103T466 140T506 267V700H626V267Q626 192 605 137T545 50T459 3T353 -12Z" />
<glyph unicode="&#xdb;" glyph-name="Ucircumflex" horiz-adv-x="706" d="M442 765L353 839L264 765H154L296 921H411L552 765H442ZM353 -12Q296 -12 249 2T163 48T102 135T80 267V700H200V267Q200 176 239 140T353 103T466 140T506 267V700H626V267Q626 192 605
137T545 50T459 3T353 -12Z" />
<glyph unicode="&#xdc;" glyph-name="Udieresis" horiz-adv-x="706" d="M288 775T260 775T212 794T192 843T212 891T260 911T308 892T328 843T308 795ZM474 775T445 775T397 794T377 843T396 891T445 911T493 892T513 843T494 795ZM353 -12Q296 -12 249 2T163
48T102 135T80 267V700H200V267Q200 176 239 140T353 103T466 140T506 267V700H626V267Q626 192 605 137T545 50T459 3T353 -12Z" />
<glyph unicode="&#xdd;" glyph-name="Yacute" horiz-adv-x="679" d="M229 765L371 921H523L345 765H229ZM280 0V274L28 700H164L340 397L516 700H652L399 274V0H280Z" />
<glyph unicode="&#xde;" glyph-name="Thorn" horiz-adv-x="646" d="M85 0V700H205V574H376Q497 574 554 511T611 356Q611 317 598 280T558 211T484 159T376 139H205V0H85ZM382 253Q435 253 461 283T487 356Q487 397 463 428T382 460H205V253H382Z" />
<glyph unicode="&#xdf;" glyph-name="germandbls" horiz-adv-x="567" d="M65 -200V471Q65 593 128 652T283 712Q376 712 433 662T491 529Q491 423 397 385Q458 367 492 322T527 212Q527 107 468 48T316 -12Q255 -12 215 8L271 98Q293 92 313 92Q351 92 380 123T410
209Q410 259 378 293T283 328H253V432H283Q323 432 348 456T374 522Q374 560 350 584T284 608Q182 608 182 474V-146L65 -200Z" />
<glyph unicode="&#xe0;" glyph-name="agrave" horiz-adv-x="545" d="M267 576L89 732H241L383 576H267ZM366 0V41Q315 -12 230 -12Q148 -12 97 32T45 158Q45 241 103 284T245 327Q318 327 366 300V327Q366 376 342 398T266 420Q183 420 114 372L78 467Q161 523
278 523Q318 523 348 517T411 491T462 431T480 329V0H366ZM252 91Q319 91 366 140V206Q322 227 264 227Q217 227 188 210T159 158Q159 127 183 109T252 91Z" />
<glyph unicode="&#xe1;" glyph-name="aacute" horiz-adv-x="545" d="M170 576L312 732H464L286 576H170ZM366 0V41Q315 -12 230 -12Q148 -12 97 32T45 158Q45 241 103 284T245 327Q318 327 366 300V327Q366 376 342 398T266 420Q183 420 114 372L78 467Q161 523
278 523Q318 523 348 517T411 491T462 431T480 329V0H366ZM252 91Q319 91 366 140V206Q322 227 264 227Q217 227 188 210T159 158Q159 127 183 109T252 91Z" />
<glyph unicode="&#xe2;" glyph-name="acircumflex" horiz-adv-x="545" d="M368 576L279 650L190 576H80L222 732H337L478 576H368ZM366 0V41Q315 -12 230 -12Q148 -12 97 32T45 158Q45 241 103 284T245 327Q318 327 366 300V327Q366 376 342 398T266 420Q183 420
114 372L78 467Q161 523 278 523Q318 523 348 517T411 491T462 431T480 329V0H366ZM252 91Q319 91 366 140V206Q322 227 264 227Q217 227 188 210T159 158Q159 127 183 109T252 91Z" />
<glyph unicode="&#xe3;" glyph-name="atilde" horiz-adv-x="545" d="M358 585Q320 585 268 608T193 632Q147 632 146 589H90Q90 723 200 723Q238 723 290 700T365 676Q409 676 412 719H468Q468 585 358 585ZM366 0V41Q315 -12 230 -12Q148 -12 97 32T45 158Q45
241 103 284T245 327Q318 327 366 300V327Q366 376 342 398T266 420Q183 420 114 372L78 467Q161 523 278 523Q318 523 348 517T411 491T462 431T480 329V0H366ZM252 91Q319 91 366 140V206Q322 227 264 227Q217 227 188 210T159 158Q159 127 183 109T252 91Z"
/>
<glyph unicode="&#xe4;" glyph-name="adieresis" horiz-adv-x="545" d="M214 586T186 586T138 606T118 654T138 702T186 722T234 702T254 654T234 606ZM400 586T371 586T323 606T303 654T322 702T371 722T419 702T439 654T420 606ZM366 0V41Q315 -12 230 -12Q148
-12 97 32T45 158Q45 241 103 284T245 327Q318 327 366 300V327Q366 376 342 398T266 420Q183 420 114 372L78 467Q161 523 278 523Q318 523 348 517T411 491T462 431T480 329V0H366ZM252 91Q319 91 366 140V206Q322 227 264 227Q217 227 188 210T159 158Q159 127
183 109T252 91Z" />
<glyph unicode="&#xe5;" glyph-name="aring" horiz-adv-x="545" d="M279 564Q226 564 189 600T152 689T189 777T279 814Q331 814 368 778T405 689T368 601T279 564ZM279 646Q296 646 308 658T321 689T309 720T279 733Q261 733 249 721T237 689T249 658T279 646ZM366
0V41Q315 -12 230 -12Q148 -12 97 32T45 158Q45 241 103 284T245 327Q318 327 366 300V327Q366 376 342 398T266 420Q183 420 114 372L78 467Q161 523 278 523Q318 523 348 517T411 491T462 431T480 329V0H366ZM252 91Q319 91 366 140V206Q322 227 264 227Q217
227 188 210T159 158Q159 127 183 109T252 91Z" />
<glyph unicode="&#xe6;" glyph-name="ae" horiz-adv-x="857" d="M224 -12Q145 -12 95 32T45 158Q45 242 101 285T238 328Q310 328 356 301V327Q356 376 333 398T259 420Q180 420 114 372L78 467Q162 523 273 523T428 462Q487 523 589 523Q687 523 749 462T812
283Q812 241 807 211H470Q472 157 506 124T589 91Q657 91 697 144L771 68Q704 -12 589 -12Q471 -12 409 70Q331 -12 224 -12ZM470 310H696Q692 364 662 392T589 420Q539 420 507 393T470 310ZM248 91Q312 91 356 140V206Q316 227 259 227Q215 227 187 210T159 158Q159
127 182 109T248 91Z" />
<glyph unicode="&#xe7;" glyph-name="ccedilla" horiz-adv-x="533" d="M262 -242Q191 -242 157 -199L210 -160Q224 -177 250 -177Q273 -177 286 -166T299 -135Q299 -117 285 -106T248 -94Q224 -94 206 -106L183 -77L238 -9Q150 4 100 73T50 255Q50 380 111 451T278
523Q436 523 481 382L370 345Q345 411 282 411Q229 411 199 369T169 255Q169 184 198 143T278 101Q349 101 371 175L483 141Q442 1 304 -11L281 -48Q337 -48 365 -72T393 -136Q393 -183 358 -212T262 -242Z" />
<glyph unicode="&#xe8;" glyph-name="egrave" horiz-adv-x="554" d="M301 576L123 732H275L417 576H301ZM286 -12Q177 -12 114 59T50 256Q50 380 114 451T286 523Q384 523 446 462T509 283Q509 242 505 211H166Q169 157 203 124T286 91Q354 91 394 144L468 68Q401
-12 286 -12ZM167 308H393Q389 363 359 391T286 420Q236 420 204 393T167 308Z" />
<glyph unicode="&#xe9;" glyph-name="eacute" horiz-adv-x="554" d="M156 576L298 732H450L272 576H156ZM286 -12Q177 -12 114 59T50 256Q50 380 114 451T286 523Q384 523 446 462T509 283Q509 242 505 211H166Q169 157 203 124T286 91Q354 91 394 144L468 68Q401
-12 286 -12ZM167 308H393Q389 363 359 391T286 420Q236 420 204 393T167 308Z" />
<glyph unicode="&#xea;" glyph-name="ecircumflex" horiz-adv-x="554" d="M375 576L286 650L197 576H87L229 732H344L485 576H375ZM286 -12Q177 -12 114 59T50 256Q50 380 114 451T286 523Q384 523 446 462T509 283Q509 242 505 211H166Q169 157 203 124T286 91Q354
91 394 144L468 68Q401 -12 286 -12ZM167 308H393Q389 363 359 391T286 420Q236 420 204 393T167 308Z" />
<glyph unicode="&#xeb;" glyph-name="edieresis" horiz-adv-x="554" d="M222 586T193 586T145 606T125 654T144 702T193 722T241 702T261 654T242 606ZM406 586T378 586T330 606T310 654T330 702T378 722T426 702T446 654T426 606ZM286 -12Q177 -12 114 59T50
256Q50 380 114 451T286 523Q384 523 446 462T509 283Q509 242 505 211H166Q169 157 203 124T286 91Q354 91 394 144L468 68Q401 -12 286 -12ZM167 308H393Q389 363 359 391T286 420Q236 420 204 393T167 308Z" />
<glyph unicode="&#xec;" glyph-name="igrave" horiz-adv-x="269" d="M128 576L-50 732H102L244 576H128ZM76 0V511H193V0H76Z" />
<glyph unicode="&#xed;" glyph-name="iacute" horiz-adv-x="269" d="M25 576L167 732H319L141 576H25ZM76 0V511H193V0H76Z" />
<glyph unicode="&#xee;" glyph-name="icircumflex" horiz-adv-x="269" d="M224 576L135 650L46 576H-64L78 732H193L334 576H224ZM76 0V511H193V0H76Z" />
<glyph unicode="&#xef;" glyph-name="idieresis" horiz-adv-x="269" d="M70 586T42 586T-6 606T-26 654T-6 702T42 722T90 702T110 654T90 606ZM256 586T227 586T179 606T159 654T178 702T227 722T275 702T295 654T276 606ZM76 0V511H193V0H76Z" />
<glyph unicode="&#xf0;" glyph-name="eth" horiz-adv-x="569" d="M284 -12Q183 -12 117 54T50 221Q50 321 114 388T274 456Q352 456 390 406Q372 495 308 549L248 487L184 546L229 593Q182 609 132 610V712Q233 709 307 675L364 734L427 674L382 626Q450 568 484
475T519 269Q519 145 459 67T284 -12ZM284 100Q334 100 368 134T402 220Q402 275 369 310T283 345Q233 345 200 311T167 221Q167 170 201 135T284 100Z" />
<glyph unicode="&#xf1;" glyph-name="ntilde" horiz-adv-x="578" d="M375 585Q337 585 285 608T210 632Q164 632 163 589H107Q107 723 217 723Q255 723 307 700T382 676Q426 676 429 719H485Q485 585 375 585ZM391 0V293Q391 412 296 412Q192 412 192 295V0H75V511H192V463Q242
523 327 523Q407 523 457 473T508 314V0H391Z" />
<glyph unicode="&#xf2;" glyph-name="ograve" horiz-adv-x="569" d="M299 576L121 732H273L415 576H299ZM284 -12Q176 -12 113 59T50 255T113 451T284 523T455 452T519 255T456 59T284 -12ZM284 100Q339 100 370 141T402 255T371 370T284 412Q231 412 199 370T167
255T198 142T284 100Z" />
<glyph unicode="&#xf3;" glyph-name="oacute" horiz-adv-x="569" d="M155 576L297 732H449L271 576H155ZM284 -12Q176 -12 113 59T50 255T113 451T284 523T455 452T519 255T456 59T284 -12ZM284 100Q339 100 370 141T402 255T371 370T284 412Q231 412 199 370T167
255T198 142T284 100Z" />
<glyph unicode="&#xf4;" glyph-name="ocircumflex" horiz-adv-x="569" d="M374 576L285 650L196 576H86L228 732H343L484 576H374ZM284 -12Q176 -12 113 59T50 255T113 451T284 523T455 452T519 255T456 59T284 -12ZM284 100Q339 100 370 141T402 255T371 370T284
412Q231 412 199 370T167 255T198 142T284 100Z" />
<glyph unicode="&#xf5;" glyph-name="otilde" horiz-adv-x="569" d="M364 585Q326 585 274 608T199 632Q153 632 152 589H96Q96 723 206 723Q244 723 296 700T371 676Q415 676 418 719H474Q474 585 364 585ZM284 -12Q176 -12 113 59T50 255T113 451T284 523T455
452T519 255T456 59T284 -12ZM284 100Q339 100 370 141T402 255T371 370T284 412Q231 412 199 370T167 255T198 142T284 100Z" />
<glyph unicode="&#xf6;" glyph-name="odieresis" horiz-adv-x="569" d="M220 586T192 586T144 606T124 654T144 702T192 722T240 702T260 654T240 606ZM406 586T377 586T329 606T309 654T328 702T377 722T425 702T445 654T426 606ZM284 -12Q176 -12 113 59T50
255T113 451T284 523T455 452T519 255T456 59T284 -12ZM284 100Q339 100 370 141T402 255T371 370T284 412Q231 412 199 370T167 255T198 142T284 100Z" />
<glyph unicode="&#xf7;" glyph-name="divide" horiz-adv-x="630" d="M315 459Q284 459 264 479T243 528T263 577T315 598Q345 598 366 578T387 528T366 479T315 459ZM80 287V400H550V287H80ZM315 88Q284 88 264 108T243 158T263 207T315 228Q345 228 366 208T387
158T366 109T315 88Z" />
<glyph unicode="&#xf8;" glyph-name="oslash" horiz-adv-x="569" d="M519 523L464 442Q519 370 519 255Q519 130 456 59T284 -12Q220 -12 173 13L156 -12H50L105 69Q50 140 50 255Q50 380 113 451T284 523Q346 523 396 498L413 523H519ZM167 255Q167 211 179 178L331
402Q311 412 284 412Q231 412 199 370T167 255ZM402 255Q402 300 390 333L238 109Q259 100 284 100Q339 100 370 141T402 255Z" />
<glyph unicode="&#xf9;" glyph-name="ugrave" horiz-adv-x="578" d="M299 576L121 732H273L415 576H299ZM386 0V49Q338 -12 252 -12Q172 -12 121 38T70 198V511H187V219Q187 100 283 100Q386 100 386 217V511H503V0H386Z" />
<glyph unicode="&#xfa;" glyph-name="uacute" horiz-adv-x="578" d="M154 576L296 732H448L270 576H154ZM386 0V49Q338 -12 252 -12Q172 -12 121 38T70 198V511H187V219Q187 100 283 100Q386 100 386 217V511H503V0H386Z" />
<glyph unicode="&#xfb;" glyph-name="ucircumflex" horiz-adv-x="578" d="M373 576L284 650L195 576H85L227 732H342L483 576H373ZM386 0V49Q338 -12 252 -12Q172 -12 121 38T70 198V511H187V219Q187 100 283 100Q386 100 386 217V511H503V0H386Z" />
<glyph unicode="&#xfc;" glyph-name="udieresis" horiz-adv-x="578" d="M220 586T191 586T143 606T123 654T142 702T191 722T239 702T259 654T240 606ZM404 586T376 586T328 606T308 654T328 702T376 722T424 702T444 654T424 606ZM386 0V49Q338 -12 252 -12Q172
-12 121 38T70 198V511H187V219Q187 100 283 100Q386 100 386 217V511H503V0H386Z" />
<glyph unicode="&#xfd;" glyph-name="yacute" horiz-adv-x="554" d="M147 576L289 732H441L263 576H147ZM138 -194L217 8L25 511H143L262 197Q271 175 277 151Q282 173 291 197L411 511H529L259 -194H138Z" />
<glyph unicode="&#xfe;" glyph-name="thorn" horiz-adv-x="567" d="M306 -12Q232 -12 190 41V-145L73 -199V657L190 712V472Q232 523 306 523Q403 523 460 453T517 255Q517 131 459 60T306 -12ZM288 100Q342 100 371 140T400 255Q400 326 371 369T288 412Q224
412 190 362V150Q225 100 288 100Z" />
<glyph unicode="&#xff;" glyph-name="ydieresis" horiz-adv-x="554" d="M212 586T184 586T136 606T116 654T136 702T184 722T232 702T252 654T232 606ZM398 586T369 586T321 606T301 654T320 702T369 722T417 702T437 654T418 606ZM138 -194L217 8L25 511H143L262
197Q271 175 277 151Q282 173 291 197L411 511H529L259 -194H138Z" />
<glyph unicode="&#x2013;" glyph-name="endash" horiz-adv-x="495" d="M50 236V338H445V236H50Z" />
<glyph unicode="&#x2014;" glyph-name="emdash" horiz-adv-x="575" d="M-5 236V338H580V236H-5Z" />
<glyph unicode="&#x2018;" glyph-name="quoteleft" horiz-adv-x="235" d="M117 428Q82 428 59 452T35 521Q35 578 68 629T150 712L197 679Q180 664 160 635T134 581Q161 575 178 556T196 507Q196 472 173 450T117 428Z" />
<glyph unicode="&#x2019;" glyph-name="quoteright" horiz-adv-x="235" d="M38 461Q56 477 76 505T101 559Q75 565 57 584T39 633Q39 668 62 690T118 712Q153 712 176 688T200 619Q200 563 167 511T85 428L38 461Z" />
<glyph unicode="&#x201a;" glyph-name="quotesinglbase" horiz-adv-x="235" d="M38 -108Q56 -92 76 -64T101 -10Q75 -4 57 15T39 64Q39 99 62 121T118 144Q153 144 176 120T200 50Q200 -6 167 -58T85 -141L38 -108Z" />
<glyph unicode="&#x201c;" glyph-name="quotedblleft" horiz-adv-x="466" d="M117 428Q82 428 59 452T35 521Q35 578 68 629T150 712L197 679Q180 664 160 635T134 581Q161 575 178 556T196 507Q196 472 173 450T117 428ZM348 428Q313 428 290 452T266 521Q266
577 299 629T381 712L428 679Q411 664 391 636T365 581Q392 575 409 556T427 507Q427 472 404 450T348 428Z" />
<glyph unicode="&#x201d;" glyph-name="quotedblright" horiz-adv-x="466" d="M38 461Q56 477 76 505T101 559Q75 565 57 584T39 633Q39 668 62 690T118 712Q153 712 176 688T200 619Q200 563 167 511T85 428L38 461ZM269 461Q287 477 307 505T332 559Q306 565
288 584T270 633Q270 668 293 690T349 712Q384 712 407 688T431 619Q431 563 398 511T316 428L269 461Z" />
<glyph unicode="&#x201e;" glyph-name="quotedblbase" horiz-adv-x="466" d="M38 -108Q56 -92 76 -64T101 -10Q75 -4 57 15T39 64Q39 99 62 121T118 144Q153 144 176 120T200 50Q200 -6 167 -58T85 -141L38 -108ZM269 -108Q287 -92 307 -64T332 -10Q306 -4 288
15T270 64Q270 99 293 121T349 144Q384 144 407 120T431 50Q431 -6 398 -58T316 -141L269 -108Z" />
<glyph unicode="&#x2022;" glyph-name="bullet" horiz-adv-x="414" d="M206 209Q144 209 102 250T60 350T102 451T206 493Q267 493 310 451T354 350T311 250T206 209Z" />
<glyph unicode="&#x2039;" glyph-name="guilsinglleft" horiz-adv-x="324" d="M182 0L30 256L182 511H309L157 256L309 0H182Z" />
<glyph unicode="&#x203a;" glyph-name="guilsinglright" horiz-adv-x="324" d="M15 0L167 256L15 511H142L294 256L142 0H15Z" />
</font>
</defs>
</svg>
